<?xml version="1.0" standalone="no"?>
<!DOCTYPE svg PUBLIC "-//W3C//DTD SVG 1.1//EN" "http://www.w3.org/Graphics/SVG/1.1/DTD/svg11.dtd" >
<svg xmlns="http://www.w3.org/2000/svg" xmlns:xlink="http://www.w3.org/1999/xlink" version="1.1">
<metadata>
Created by FontForge 20170731 at Mon Jan 18 07:23:56 2021
 By Aleksey,,,
Copyright 2017 The Barlow Project Authors (https://github.com/jpt/barlow)
</metadata>
<defs>
<font id="Barlow-ExtraLightItalic" horiz-adv-x="1060" >
  <font-face 
    font-family="Barlow ExtraLight"
    font-weight="275"
    font-style="italic"
    font-stretch="normal"
    units-per-em="2048"
    panose-1="0 0 3 0 0 0 0 0 0 0"
    ascent="1638"
    descent="-410"
    x-height="1028"
    cap-height="1434"
    bbox="-1047 -430 2212.33 2009"
    underline-thickness="102"
    underline-position="-307"
    slope="-7"
    unicode-range="U+000D-25CA"
  />
<missing-glyph horiz-adv-x="780" 
d="M-39 8q0 -8 6 -8h766q8 0 8 8l174 1417q1 3 -1 6t-5 3h-766q-8 0 -8 -9zM387 461q-21 0 -18 20l12 97q6 50 36 90.5t68.5 69t77 59t68.5 76t37 104.5q10 86 -34.5 138t-127.5 52t-141 -51.5t-68 -136.5l-6 -49q-3 -21 -23 -21h-16q-8 0 -12.5 7t-3.5 16l6 47
q12 107 88 173.5t184 66.5q106 0 164 -67t45 -177q-6 -50 -24 -91.5t-42 -70t-52.5 -52.5t-56 -44.5t-51 -40.5t-39.5 -45.5t-20 -55.5l-12 -94q0 -9 -7 -14.5t-16 -5.5h-16zM367 188q-28 0 -45.5 20t-14.5 48q3 27 26 47.5t50 20.5q26 0 44 -20t15 -48q-3 -27 -25.5 -47.5
t-49.5 -20.5z" />
    <glyph glyph-name="I_J.liga" unicode="IJ" horiz-adv-x="1652" 
d="M197 0q-20 0 -17 20l170 1393q4 21 23 21h37q9 0 14 -6t4 -15l-172 -1393q0 -9 -7 -14.5t-16 -5.5h-36zM965 -16q-194 0 -297 112.5t-80 298.5l12 105q3 20 23 20h36q19 0 19 -20l-14 -107q-19 -152 66 -245t245 -93q158 0 266.5 93t128.5 245l125 1020q3 21 23 21h34
q19 0 19 -21l-125 -1018q-23 -186 -154.5 -298.5t-326.5 -112.5z" />
    <glyph glyph-name="f_f_i.liga" unicode="ffi" horiz-adv-x="1818" 
d="M328 1110q20 166 92 245.5t233 78.5h47q19 0 19 -21l-4 -24q-3 -21 -23 -21h-47q-124 0 -176 -64t-68 -198l-8 -70q0 -8 6 -8h252q20 0 17 -20l-4 -29q0 -9 -6.5 -15t-14.5 -6h-252q-8 0 -8 -8l-115 -930q-3 -20 -22 -20h-35q-18 0 -18 20l114 930q0 8 -6 8h-127
q-9 0 -14 6t-4 15l4 29q3 20 22 20h127q8 0 8 8zM993 1110q20 166 93 245.5t235 78.5h45q20 0 16 -21l-2 -24q-4 -21 -22 -21h-45q-124 0 -177 -64t-69 -198l-8 -70q0 -8 6 -8h246q19 0 16 -20l-2 -29q-1 -9 -7.5 -15t-14.5 -6h-246q-8 0 -8 -8l-115 -930q-3 -20 -23 -20
h-34q-19 0 -19 20l115 930q0 8 -6 8h-148q-18 0 -18 21l4 29q3 20 22 20h148q8 0 8 8zM1714 1405q34 0 53.5 -22t14.5 -54q-3 -34 -27.5 -56t-58.5 -22q-35 0 -55 22t-15 56q3 32 28.5 54t59.5 22zM1524 0q-20 0 -17 20l121 988q0 9 7 14.5t16 5.5h37q18 0 18 -20l-123 -988
q0 -9 -6.5 -14.5t-15.5 -5.5h-37z" />
    <glyph glyph-name="f_f_l.liga" unicode="ffl" horiz-adv-x="1787" 
d="M401 1106l-8 -70q0 -8 6 -8h267q8 0 12.5 -5.5t3.5 -14.5l-4 -29q0 -9 -7 -15t-16 -6h-264q-8 0 -8 -8l-115 -930q-3 -20 -22 -20h-35q-18 0 -18 20l114 930q0 8 -6 8h-127q-9 0 -14 6t-4 15l4 29q3 20 22 20h127q8 0 8 8l11 74q20 166 92 245.5t233 78.5h47q19 0 19 -21
l-4 -24q-3 -21 -23 -21h-47q-124 0 -176 -64t-68 -198zM993 1110q20 166 93 245.5t235 78.5h45q20 0 16 -21l-2 -24q-4 -21 -22 -21h-45q-124 0 -177 -64t-69 -198l-8 -70q0 -8 6 -8h246q19 0 16 -20l-2 -29q-1 -9 -7.5 -15t-14.5 -6h-246q-8 0 -8 -8l-115 -930
q-3 -20 -23 -20h-34q-19 0 -19 20l115 930q0 8 -6 8h-148q-18 0 -18 21l4 29q3 20 22 20h148q8 0 8 8zM1661 1413q3 21 22 21h39q8 0 13 -6t4 -15l-170 -1393q-1 -9 -8 -14.5t-15 -5.5h-39q-19 0 -16 20z" />
    <glyph glyph-name="f_i.liga" unicode="fi" horiz-adv-x="1155" 
d="M328 1102q21 173 92.5 252.5t234.5 79.5h47q20 0 17 -21l-2 -31q-3 -20 -23 -20h-45q-124 0 -175.5 -62.5t-67.5 -199.5l-9 -64q0 -8 6 -8h242q20 0 17 -20l-5 -33q0 -9 -6.5 -15t-15.5 -6h-240q-8 0 -8 -8l-115 -926q-3 -20 -22 -20h-37q-18 0 -18 20l114 926q0 8 -8 8
h-129q-8 0 -12.5 6t-3.5 15l4 33q3 20 22 20h129q8 0 8 8zM1051 1405q33 0 52.5 -21.5t14.5 -52.5q-3 -34 -27.5 -56t-58.5 -22t-53.5 22t-15.5 56q3 31 28.5 52.5t59.5 21.5zM858 0q-19 0 -16 20l121 988q0 9 6.5 14.5t15.5 5.5h37q18 0 18 -20l-122 -988q0 -9 -7 -14.5
t-16 -5.5h-37z" />
    <glyph glyph-name="f_l.liga" unicode="fl" horiz-adv-x="1124" 
d="M328 1102q21 173 92.5 252.5t234.5 79.5h47q20 0 17 -21l-2 -31q-3 -20 -23 -20h-45q-124 0 -175.5 -62.5t-67.5 -199.5l-9 -64q0 -8 6 -8h242q20 0 17 -20l-5 -33q0 -9 -6.5 -15t-15.5 -6h-240q-8 0 -8 -8l-115 -926q-3 -20 -22 -20h-37q-18 0 -18 20l114 926q0 8 -8 8
h-129q-8 0 -12.5 6t-3.5 15l4 33q3 20 22 20h129q8 0 8 8zM997 1413q3 21 23 21h39q8 0 12.5 -6t3.5 -15l-170 -1393q-3 -20 -22 -20h-39q-20 0 -17 20z" />
    <glyph glyph-name="g_j.liga" unicode="gj" horiz-adv-x="1501" 
d="M1413 1405q36 0 55 -20.5t15 -55.5q-5 -35 -28.5 -55.5t-61.5 -20.5q-34 0 -53 20.5t-15 55.5t29 55.5t59 20.5zM862 895q3 -6 6.5 -5t3.5 7l15 111q3 20 22 20h37q19 0 19 -20l-123 -996q-55 -435 -543 -420q-19 0 -16 21l6 35q3 20 22 20q212 -6 321.5 80t131.5 266
l16 123q0 4 -1.5 5.5t-4 0.5t-4.5 -4q-108 -151 -299 -151q-130 0 -215 72.5t-100 197.5q-14 80 8 254t55 264q45 120 147 194t234 74q188 0 262 -149zM1184 -131l139 1139q3 20 23 20h38q8 0 13 -5.5t4 -14.5l-139 -1139q-17 -140 -102 -217t-224 -82q-19 0 -16 20l4 31
q0 9 6.5 15t15.5 6q98 5 162 64.5t76 162.5zM791 289q13 51 34 225t21 227q-3 100 -68 166t-176 66q-110 0 -192 -65t-123 -167q-24 -69 -43 -225q-21 -168 -13 -225q11 -102 79.5 -168t178.5 -66q114 0 194 66.5t108 165.5z" />
    <glyph glyph-name="i_j.liga" unicode="ij" horiz-adv-x="917" 
d="M352 1253q-34 0 -53.5 22t-15.5 56q3 31 28.5 52.5t59.5 21.5t53 -21t16 -53q-5 -34 -29.5 -56t-58.5 -22zM809 1251q-34 0 -53 21.5t-15 56.5t28.5 55.5t57.5 20.5q37 0 56 -20.5t16 -55.5q-5 -35 -29 -56.5t-61 -21.5zM178 0q-19 0 -16 20l121 988q3 20 22 20h37
q21 0 18 -20l-120 -988q-3 -20 -23 -20h-39zM350 -430q-19 0 -16 20l2 31q4 21 24 21q102 5 165 64t75 163l139 1139q3 20 23 20h37q21 0 18 -20l-139 -1137q-19 -143 -102.5 -220t-225.5 -81z" />
    <glyph glyph-name="hyphen_hyphen.liga" unicode="&#x2d;&#x2d;" horiz-adv-x="1386" 
d="M141 596q-18 0 -18 20l4 31q3 21 23 21h1171q9 0 14 -6t4 -15l-4 -31q-3 -20 -22 -20h-1172z" />
    <glyph glyph-name=".notdef" horiz-adv-x="780" 
d="M-39 8q0 -8 6 -8h766q8 0 8 8l174 1417q1 3 -1 6t-5 3h-766q-8 0 -8 -9zM387 461q-21 0 -18 20l12 97q6 50 36 90.5t68.5 69t77 59t68.5 76t37 104.5q10 86 -34.5 138t-127.5 52t-141 -51.5t-68 -136.5l-6 -49q-3 -21 -23 -21h-16q-8 0 -12.5 7t-3.5 16l6 47
q12 107 88 173.5t184 66.5q106 0 164 -67t45 -177q-6 -50 -24 -91.5t-42 -70t-52.5 -52.5t-56 -44.5t-51 -40.5t-39.5 -45.5t-20 -55.5l-12 -94q0 -9 -7 -14.5t-16 -5.5h-16zM367 188q-28 0 -45.5 20t-14.5 48q3 27 26 47.5t50 20.5q26 0 44 -20t15 -48q-3 -27 -25.5 -47.5
t-49.5 -20.5z" />
    <glyph glyph-name=".null" horiz-adv-x="0" 
 />
    <glyph glyph-name="nonmarkingreturn" horiz-adv-x="682" 
 />
    <glyph glyph-name="CR" unicode="&#xd;" horiz-adv-x="397" 
 />
    <glyph glyph-name="space" unicode=" " horiz-adv-x="397" 
 />
    <glyph glyph-name="exclam" unicode="!" horiz-adv-x="620" 
d="M311 457q-21 0 -18 20l110 936q3 21 23 21h39q8 0 12.5 -6t3.5 -15l-119 -936q-3 -20 -22 -20h-29zM266 8q-41 0 -65 28t-19 70q4 39 36 68t71 29t64.5 -29t21.5 -68q-4 -41 -37 -69.5t-72 -28.5z" />
    <glyph glyph-name="quotedbl" unicode="&#x22;" horiz-adv-x="434" 
d="M186 1016q-18 0 -18 20l35 363q3 20 22 20h45q8 0 13 -5.5t4 -14.5l-54 -363q-3 -20 -22 -20h-25zM395 1016q-21 0 -18 20l37 363q3 20 22 20h41q9 0 14.5 -5.5t4.5 -14.5l-54 -363q-3 -20 -22 -20h-25z" />
    <glyph glyph-name="numbersign" unicode="#" horiz-adv-x="1286" 
d="M1190 924q-3 -21 -23 -21h-149q-10 0 -10 -8l-105 -383q0 -8 4 -8h142q9 0 14 -6t4 -15l-6 -30q-3 -21 -23 -21h-149q-10 0 -10 -8l-105 -381q-5 -18 -22 -18l-37 2q-9 0 -14 6.5t-3 15.5l103 375q0 8 -4 8h-371q-10 0 -10 -8l-105 -381q-5 -18 -22 -18l-37 2
q-9 0 -13.5 6.5t-2.5 15.5l102 375q0 8 -4 8h-133q-9 0 -14.5 6t-4.5 15l6 30q3 21 23 21h141q10 0 10 8l103 383q4 8 -4 8h-131q-19 0 -19 21l6 30q3 21 23 21h141q11 0 11 8l104 383q5 18 22 18l39 -2q8 0 13 -6.5t2 -15.5l-103 -377q0 -8 6 -8h369q10 0 10 8l105 383
q5 18 22 18l39 -2q8 0 13 -6.5t2 -15.5l-103 -377q0 -8 6 -8h140q9 0 14 -6t4 -15zM815 504q10 0 10 8l103 383q4 8 -4 8h-369q-10 0 -10 -8l-105 -383q0 -8 4 -8h371z" />
    <glyph glyph-name="dollar" unicode="$" horiz-adv-x="1079" 
d="M958 344q-19 -158 -132 -256t-300 -104q-8 0 -8 -9l-16 -131q-3 -20 -23 -20h-24q-20 0 -17 20l19 133q0 9 -8 9q-167 15 -251 109.5t-65 244.5l10 78q0 9 7 14.5t16 5.5h33q18 0 18 -20l-8 -66q-18 -134 65.5 -215.5t247.5 -81.5q154 0 247.5 76t111.5 207
q7 63 -9 111.5t-65.5 95.5t-106.5 83.5t-161 94.5q-180 96 -245 169t-46 216q19 154 113.5 241t254.5 99q7 0 11 8l16 143q3 21 23 21h22q20 0 17 -21l-17 -141q-4 -8 6 -8q186 -6 274.5 -102.5t69.5 -257.5l-8 -56q0 -9 -6.5 -14.5t-15.5 -5.5h-37q-20 0 -17 20l4 43
q18 137 -60.5 219t-240.5 82q-145 0 -230.5 -68.5t-100.5 -197.5q-8 -63 4.5 -108t58.5 -84.5t87 -63.5t133 -70l24 -12q126 -64 197.5 -122t105.5 -134t22 -174z" />
    <glyph glyph-name="percent" unicode="%" horiz-adv-x="1703" 
d="M559 899q-113 0 -182 81.5t-55 197.5q13 115 102.5 195.5t202.5 80.5q112 0 181.5 -81t55.5 -195q-13 -115 -102.5 -197t-202.5 -82zM420 0q-12 0 -15 7t3 18l925 1394q11 15 25 15h22q12 0 15 -7t-4 -18l-922 -1395q-11 -14 -27 -14h-22zM567 958q87 0 156.5 64.5
t81.5 155.5q11 91 -42.5 154t-141.5 63q-89 0 -159.5 -63t-80.5 -154q-11 -93 42.5 -156.5t143.5 -63.5zM1178 -20q-113 0 -181.5 81t-54.5 197q13 115 101.5 196t201.5 81t182.5 -81t55.5 -196q-15 -116 -103.5 -197t-201.5 -81zM1186 39q88 0 157 64t80 155
q12 90 -42 153.5t-142 63.5q-89 0 -159.5 -63t-80.5 -154q-12 -92 42.5 -155.5t144.5 -63.5z" />
    <glyph glyph-name="ampersand" unicode="&#x26;" horiz-adv-x="1275" 
d="M1096 25q7 -11 1.5 -18t-16.5 -7h-47q-13 0 -22 12l-115 170q-4 8 -12 0q-109 -106 -207 -152t-219 -46q-171 0 -261.5 82.5t-70.5 234.5q8 62 33 119.5t57 101t82.5 90t92 78t102.5 72.5q6 3 2 10q-104 156 -134.5 231.5t-21.5 149.5q17 134 109 215.5t227 81.5
q140 0 216.5 -78t61.5 -207q-7 -53 -30 -103t-52 -88t-77 -80t-86.5 -70t-98.5 -68q-10 -3 -2 -11q100 -152 172 -256q19 -29 61 -89.5t60 -88.5q3 -10 10 0q69 75 158 181q16 16 29 6l26 -19q13 -11 2 -28q-114 -134 -176 -199q-5 -10 8 -25q45 -66 87.5 -128t50.5 -74z
M672 1374q-103 0 -172.5 -58.5t-81.5 -162.5q-8 -59 18.5 -123t122.5 -213q5 -5 12 -2q69 47 111.5 80t89.5 78t73 92.5t32 99.5q10 95 -46.5 152t-158.5 57zM477 55q102 1 185.5 44.5t181.5 142.5q7 7 2 12q-76 112 -135 203q-22 32 -82 118t-86 125q-3 6 -11 2
q-72 -50 -117 -86t-95 -86.5t-78.5 -105.5t-36.5 -117q-15 -121 58.5 -187.5t213.5 -64.5z" />
    <glyph glyph-name="quotesingle" unicode="'" horiz-adv-x="229" 
d="M188 1028q-21 0 -18 21l35 358q3 20 22 20h45q19 0 19 -20l-55 -358q-3 -21 -23 -21h-25z" />
    <glyph glyph-name="parenleft" unicode="(" horiz-adv-x="438" 
d="M139 -225q-16 0 -22 14q-69 152 -93.5 383.5t5.5 486.5q32 254 117 496t194 397q9 15 25 15h32q12 0 15.5 -7.5t-2.5 -17.5q-101 -156 -181 -394t-110 -484q-29 -252 -8 -482.5t84 -382.5q4 -10 -1.5 -17t-17.5 -7h-37z" />
    <glyph glyph-name="parenright" unicode=")" horiz-adv-x="438" 
d="M190 -211q-8 -14 -24 -14h-39q-12 0 -15 6.5t5 17.5q99 152 177.5 386.5t108.5 478.5q30 254 9.5 489t-82.5 389q-4 10 1 17.5t17 7.5h31q16 0 22 -15q72 -155 97 -394t-6 -499q-30 -248 -113 -483t-189 -387z" />
    <glyph glyph-name="asterisk" unicode="*" horiz-adv-x="786" 
d="M442 805q-19 0 -16 20l33 279q1 4 -2 6t-6 0l-258 -143q-8 -4 -16 -2t-11 10l-6 16q-7 19 10 29l256 141q3 2 4 6.5t-2 6.5l-221 141q-17 12 -4 28l10 17q5 8 13 10t16 -2l223 -143q3 -2 6.5 0t3.5 6l35 278q0 9 6.5 15t15.5 6h19q18 0 18 -21l-34 -278q0 -10 8 -6
l260 143q18 9 28 -8l5 -17q9 -16 -11 -28l-258 -141q-3 -2 -4 -6.5t2 -6.5l223 -141q8 -5 9.5 -13t-4.5 -16l-11 -16q-11 -18 -28 -8l-224 143q-9 4 -12 -6l-33 -279q-3 -20 -22 -20h-21z" />
    <glyph glyph-name="plus" unicode="+" horiz-adv-x="1007" 
d="M944 688q19 0 19 -20l-5 -29q-4 -21 -22 -21h-356q-2 0 -5.5 -2.5t-3.5 -5.5l-43 -356q-4 -21 -22 -21h-29q-19 0 -16 21l43 356q0 8 -6 8h-355q-19 0 -16 21l2 29q3 20 23 20h354q8 0 8 8l47 375q0 9 7 15t16 6h26q19 0 19 -21l-47 -375q0 -8 8 -8h354z" />
    <glyph glyph-name="comma" unicode="," horiz-adv-x="524" 
d="M117 -145q-10 0 -14 6.5t1 15.5l148 420q4 18 22 18h33q24 0 15 -22l-156 -420q-6 -18 -25 -18h-24z" />
    <glyph glyph-name="hyphen" unicode="-" horiz-adv-x="770" 
d="M143 614q-18 0 -18 21l4 31q3 20 23 20h557q19 0 16 -20l-4 -31q0 -9 -7 -15t-16 -6h-555z" />
    <glyph glyph-name="period" unicode="." horiz-adv-x="548" 
d="M229 10q-40 0 -64.5 29t-19.5 70q6 39 39 67.5t70 28.5q39 0 65.5 -28.5t22.5 -67.5q-6 -41 -39.5 -70t-73.5 -29z" />
    <glyph glyph-name="slash" unicode="/" horiz-adv-x="628" 
d="M51 0q-11 0 -14.5 6t0.5 17l577 1394q10 17 27 17h35q11 0 15.5 -6.5t0.5 -16.5l-579 -1395q-6 -16 -25 -16h-37z" />
    <glyph glyph-name="zero" unicode="0" horiz-adv-x="1116" 
d="M514 -18q-178 0 -273 106t-73 281l86 696q22 175 142 281t298 106q180 0 276 -106t74 -281l-86 -696q-22 -175 -143.5 -281t-300.5 -106zM522 53q145 0 243.5 85.5t115.5 226.5l86 704q19 139 -58.5 225t-222.5 86q-141 0 -239 -86t-115 -225l-86 -704
q-17 -141 59 -226.5t217 -85.5z" />
    <glyph glyph-name="one" unicode="1" horiz-adv-x="690" 
d="M514 1427q14 7 27 7h45q20 0 16 -21l-170 -1393q-3 -20 -22 -20h-39q-8 0 -13 5.5t-4 14.5l160 1311q2 5 -1 7t-7 -1l-244 -116q-10 -6 -16 -1.5t-4 15.5l2 25q3 14 16 24z" />
    <glyph glyph-name="two" unicode="2" horiz-adv-x="1042" 
d="M111 0q-20 0 -17 20l4 35q3 15 13 25q85 100 262.5 304t265.5 308q225 265 242 412q15 123 -56.5 198.5t-203.5 75.5q-129 0 -217 -76t-101 -200l-10 -68q0 -9 -6.5 -14.5t-14.5 -5.5h-39q-19 0 -16 20l8 76q20 152 132 246t272 94q168 0 258 -95.5t71 -250.5
q-21 -178 -249 -440q-151 -177 -504 -582q-7 -10 2 -10h655q9 0 14.5 -6t4.5 -15l-4 -31q-3 -20 -23 -20h-743z" />
    <glyph glyph-name="three" unicode="3" horiz-adv-x="1001" 
d="M856 674q25 -107 8 -248q-12 -109 -51 -195q-104 -247 -373 -247q-134 0 -216.5 74t-100.5 198q-7 55 2 145q3 21 22 21h37q22 0 19 -21q-7 -66 -4 -114q8 -105 74 -168.5t178 -63.5q204 0 288 193q31 65 47 180q14 127 -8 221q-47 170 -237 170q-30 0 -54 -6
q-18 -6 -24 6l-17 21q-8 11 5 28l419 484q4 3 3.5 6.5t-5.5 3.5h-602q-19 0 -16 20l4 31q0 9 6 15t14 6h689q18 0 18 -21l-6 -37q0 -13 -10 -26l-400 -463q-3 -3 -1.5 -6.5t7.5 -3.5q228 -3 285 -203z" />
    <glyph glyph-name="four" unicode="4" horiz-adv-x="1044" 
d="M911 481q20 0 17 -20l-4 -33q0 -9 -6.5 -14.5t-14.5 -5.5h-82q-5 0 -10 -9l-45 -379q-3 -20 -23 -20h-38q-8 0 -13 5.5t-4 14.5l47 379q0 9 -8 9h-586q-19 0 -16 20l4 33q0 11 8 24l541 934q9 15 27 15h36q10 0 14 -7t-1 -18l-535 -917q-5 -11 4 -11h514q8 0 8 8l46 361
q0 9 6.5 14.5t15.5 5.5h37q19 0 16 -20l-43 -361q0 -8 6 -8h82z" />
    <glyph glyph-name="five" unicode="5" horiz-adv-x="999" 
d="M907 614q2 -77 -10 -180q-7 -79 -31 -162q-44 -133 -150 -210.5t-243 -77.5q-133 0 -217.5 74t-99.5 196q-4 27 -4 76q0 20 20 20h39q21 0 18 -20q0 -29 2 -43q8 -104 74.5 -167t175.5 -63q114 0 198 66t118 182q17 61 22 129q10 58 10 148q1 112 -68.5 170.5
t-187.5 58.5q-101 0 -183 -46t-120 -128q-3 -16 -22 -16h-41q-20 0 -17 20l95 772q3 21 22 21h633q9 0 14 -6t4 -15l-4 -31q-3 -20 -22 -20h-567q-7 0 -11 -8l-73 -586q0 -5 2.5 -6.5t7.5 2.5q53 56 132 87.5t167 31.5q139 0 224.5 -69.5t92.5 -199.5z" />
    <glyph glyph-name="six" unicode="6" horiz-adv-x="1001" 
d="M901 629q17 -61 0 -197q-16 -129 -43 -184q-52 -124 -146 -194t-229 -70q-138 0 -223 71.5t-102 196.5q-7 55 6 184l82 651q20 166 132 264.5t271 98.5q155 0 238.5 -94.5t64.5 -249.5l-2 -14q-4 -21 -22 -21h-37q-19 0 -19 19l2 16q15 121 -49.5 196.5t-183.5 75.5
q-124 0 -213 -79t-106 -212l-43 -354q0 -6 2.5 -7.5t5.5 3.5q107 154 305 154q262 0 309 -254zM788 281q25 56 35 153q13 98 4 156q-9 98 -75 159.5t-177 61.5q-109 0 -189.5 -61.5t-113.5 -161.5q-19 -52 -30 -156q-12 -114 -6 -151q6 -98 71 -161t178 -63q103 0 185.5 57
t117.5 167z" />
    <glyph glyph-name="seven" unicode="7" horiz-adv-x="919" 
d="M291 0q-11 0 -15 6.5t0 16.5l633 1329q2 3 0.5 6.5t-4.5 3.5h-612q-6 0 -10 -8l-11 -90q-4 -21 -22 -21h-29q-9 0 -14 6t-4 15l18 149q3 21 23 21h741q19 0 16 -21l-4 -39q-4 -16 -8 -24l-631 -1334q-8 -16 -26 -16h-41z" />
    <glyph glyph-name="eight" unicode="8" horiz-adv-x="1011" 
d="M868 590q24 -81 11 -197q-16 -143 -93 -254q-55 -74 -138.5 -114.5t-186.5 -40.5q-217 0 -293 172q-42 102 -27 239q15 114 66 203q64 116 180 168q10 3 0 10q-77 42 -117 109q-58 94 -43 209q12 102 76 186q56 80 144.5 126t193.5 46q227 0 301 -178q32 -87 21 -180
q-14 -116 -91 -209q-61 -70 -141 -107q-9 -6 -2 -10q109 -56 139 -178zM334 922q33 -55 90 -87.5t131 -33.5h8q158 3 258 127q53 69 66 162q9 85 -21 147q-58 143 -237 143q-84 0 -155.5 -39.5t-115.5 -105.5q-44 -70 -53 -148q-12 -92 29 -165zM721 176q66 88 80 221
q12 92 -4 162q-21 83 -82 130t-158 48h-6q-188 0 -279 -168q-39 -66 -53 -174q-15 -131 25 -213q57 -127 225 -127q164 0 252 121z" />
    <glyph glyph-name="nine" unicode="9" horiz-adv-x="1026" 
d="M965 1182q9 -75 -7 -185l-79 -651q-20 -166 -132.5 -264t-271.5 -98q-156 0 -239.5 94.5t-63.5 249.5l2 14q0 9 6.5 14.5t14.5 5.5h38q19 0 19 -16l-4 -18q-14 -122 51.5 -197.5t183.5 -75.5q124 0 212.5 79t105.5 212l45 354q0 6 -3.5 8t-6.5 -3q-107 -154 -304 -154
q-264 0 -311 254q-14 65 2 196q12 119 41 185q53 124 148 194t229 70q138 0 223.5 -72t100.5 -196zM547 623q111 0 191 61.5t112 161.5q18 44 33 155q11 105 6 152q-6 98 -72 160.5t-180 62.5q-102 0 -184 -56t-119 -167q-23 -63 -35 -154q-12 -112 -2 -155
q9 -98 74.5 -159.5t175.5 -61.5z" />
    <glyph glyph-name="colon" unicode=":" horiz-adv-x="649" 
d="M375 735q-40 0 -64.5 28t-19.5 68q4 39 36.5 68t69.5 29q40 0 65.5 -28.5t20.5 -68.5q-4 -40 -36 -68t-72 -28zM289 37q-40 0 -64 28.5t-20 69.5q4 38 36.5 66t69.5 28q40 0 65.5 -28t20.5 -66q-4 -41 -36 -69.5t-72 -28.5z" />
    <glyph glyph-name="semicolon" unicode=";" horiz-adv-x="612" 
d="M362 741q-40 0 -63.5 28.5t-17.5 68.5q4 39 36.5 67.5t69.5 28.5q39 0 64.5 -28.5t21.5 -67.5q-6 -40 -38 -68.5t-73 -28.5zM184 -133q-9 0 -13 6.5t-1 15.5l104 396q5 18 23 18h39q9 0 13 -6.5t1 -15.5l-121 -396q-3 -18 -22 -18h-23z" />
    <glyph glyph-name="less" unicode="&#x3c;" horiz-adv-x="1007" 
d="M895 129q0 -10 -8 -14.5t-17 0.5l-747 387q-13 10 -10 24l6 45q0 15 16 25l842 387q11 5 17 0.5t5 -14.5l-6 -39q0 -15 -16 -23l-774 -352q-8 -6 -2 -12l688 -353q12 -7 12 -22z" />
    <glyph glyph-name="equal" unicode="=" horiz-adv-x="1007" 
d="M172 852q-19 0 -16 20l2 29q4 21 22 21h793q18 0 18 -21l-4 -29q-3 -20 -22 -20h-793zM119 410q-9 0 -14.5 5.5t-4.5 14.5l4 29q3 20 23 20h793q19 0 16 -20l-4 -29q0 -9 -6.5 -14.5t-14.5 -5.5h-792z" />
    <glyph glyph-name="greater" unicode="&#x3e;" horiz-adv-x="1007" 
d="M86 115q-11 -5 -17.5 -0.5t-5.5 14.5l5 39q3 14 16 22l776 353q9 6 0 12l-688 352q-13 10 -10 23l4 39q2 11 9 14.5t18 -0.5l747 -387q13 -10 10 -25l-6 -45q0 -14 -16 -24z" />
    <glyph glyph-name="question" unicode="?" horiz-adv-x="860" 
d="M381 389q-19 0 -16 21l16 143q7 52 31 96t57 76t72.5 62t79 61.5t73 66.5t58.5 85.5t32 111.5q15 121 -47.5 193.5t-177.5 72.5q-119 0 -200.5 -73t-94.5 -191l-10 -76q0 -9 -7 -14.5t-16 -5.5l-36 2q-20 0 -17 20l8 74q19 151 124.5 244.5t256.5 93.5t232.5 -93.5
t62.5 -248.5q-10 -81 -42.5 -146.5t-74.5 -106t-89.5 -79t-87.5 -68t-69.5 -71t-35.5 -88.5l-17 -141q-4 -21 -22 -21h-43zM360 8q-38 0 -62 28t-19 68q4 38 35.5 65.5t68.5 27.5q38 0 63 -27.5t21 -65.5q-4 -39 -37 -67.5t-70 -28.5z" />
    <glyph glyph-name="at" unicode="@" horiz-adv-x="1652" 
d="M1016 1227q117 0 214.5 -34.5t164 -97t107.5 -149.5t44.5 -192t-24.5 -224q-45 -179 -145.5 -282t-223.5 -103q-71 0 -118 32.5t-62 90.5q-4 11 -10 2q-85 -125 -238 -125q-102 0 -157.5 53.5t-53.5 139.5q0 49 33 178q31 132 57 182q38 88 116.5 140.5t172.5 52.5
q120 0 170 -88q1 -3 3 -3t4 2t3 5l12 55q5 19 23 19h25q9 0 14.5 -7t3.5 -16l-111 -448q-22 -89 14 -146t113 -57q93 0 171 84.5t118 236.5q48 194 4 335t-165.5 220.5t-293.5 79.5q-96 0 -193.5 -25t-193.5 -80.5t-174 -134.5t-133.5 -196t-73.5 -256q-18 -128 1.5 -237
t75 -190t152 -127t224.5 -46q100 0 198.5 24t151.5 60q20 13 27 -2l10 -16q11 -18 -6 -29q-69 -46 -179 -73.5t-216 -27.5q-142 0 -249 51.5t-168.5 142.5t-84 214.5t-2.5 269.5q20 145 81.5 269t147 209.5t190.5 146t214 89t215 28.5zM737 207q73 0 131.5 44t87.5 111
q23 62 45 156q27 115 33 158q6 67 -33 111t-112 44t-135.5 -44t-96.5 -109q-17 -36 -47 -160q-28 -107 -28 -156q-8 -69 34.5 -112t120.5 -43z" />
    <glyph glyph-name="A" unicode="A" horiz-adv-x="1148" 
d="M973 0q-18 0 -21 16l-55 283q-2 6 -8 6h-639q-6 0 -8 -6l-123 -283q-6 -16 -25 -16h-39q-22 0 -12 23l614 1394q7 17 25 17h53q6 0 13 -5t8 -12l276 -1394q3 -23 -18 -23h-41zM276 383q-2 -3 1.5 -6.5t7.5 -3.5h589q4 0 7.5 3.5t1.5 6.5l-183 938q-2 5 -5.5 5t-6.5 -5z
" />
    <glyph glyph-name="B" unicode="B" horiz-adv-x="1251" 
d="M913 745q-4 -1 -5.5 -2.5t-0.5 -3t4 -2.5q103 -43 151.5 -134.5t33.5 -219.5q-22 -176 -141.5 -279.5t-295.5 -103.5h-462q-20 0 -17 20l170 1393q4 21 23 21h448q179 0 271.5 -99t70.5 -268q-13 -115 -78.5 -197.5t-171.5 -124.5zM430 1362q-6 0 -10 -8l-70 -570
q0 -8 8 -8h383q141 0 236 79t110 208q17 135 -58 217t-216 82h-383zM668 74q140 0 236.5 86.5t115.5 226.5q17 145 -61 231.5t-226 86.5h-385q-8 0 -8 -9l-76 -614q0 -8 6 -8h398z" />
    <glyph glyph-name="C" unicode="C" horiz-adv-x="1204" 
d="M569 -18q-201 0 -308.5 119.5t-82.5 314.5l74 604q25 194 161 312t337 118q198 0 306 -117.5t85 -310.5v-2q-3 -21 -23 -21l-39 -2q-18 0 -18 13l2 12q20 160 -69 258t-253 98q-167 0 -279 -98t-132 -258l-74 -610q-20 -160 68.5 -259.5t255.5 -99.5q163 0 276 99.5
t133 259.5v4q3 18 23 18l37 -2q18 0 18 -8l-2 -10q-23 -193 -160.5 -312.5t-335.5 -119.5z" />
    <glyph glyph-name="D" unicode="D" horiz-adv-x="1226" 
d="M197 0q-20 0 -17 20l170 1393q4 21 23 21h454q184 0 279 -101.5t72 -277.5l-82 -676q-22 -176 -141.5 -277.5t-303.5 -101.5h-454zM264 80q0 -8 6 -8h394q147 0 242 83.5t112 227.5l82 666q19 146 -55.5 229.5t-221.5 83.5h-393q-6 0 -10 -8z" />
    <glyph glyph-name="E" unicode="E" horiz-adv-x="1222" 
d="M1219 1382q-3 -20 -23 -20h-766q-6 0 -10 -8l-72 -590q0 -8 6 -8h549q19 0 19 -21l-4 -33q-1 -9 -8 -14.5t-15 -5.5h-549q-8 0 -8 -8l-74 -594q0 -8 6 -8h768q20 0 17 -21l-4 -31q0 -9 -7 -14.5t-16 -5.5h-831q-20 0 -17 20l170 1393q4 21 23 21h831q9 0 14.5 -6t4.5 -15
z" />
    <glyph glyph-name="F" unicode="F" horiz-adv-x="1136" 
d="M1217 1382q-3 -20 -23 -20h-764q-6 0 -10 -8l-72 -590q0 -8 6 -8h547q19 0 19 -21l-5 -33q-1 -9 -7.5 -14.5t-14.5 -5.5h-547q-8 0 -8 -8l-82 -654q0 -9 -7 -14.5t-16 -5.5h-36q-20 0 -17 20l170 1393q4 21 23 21h829q9 0 14.5 -6t4.5 -15z" />
    <glyph glyph-name="G" unicode="G" horiz-adv-x="1202" 
d="M569 -16q-201 0 -308.5 117.5t-82.5 308.5l74 614q25 192 161 309t337 117q197 0 304.5 -116.5t84.5 -303.5l-2 -31q-3 -20 -23 -20h-39q-19 0 -16 20l4 31q19 156 -69.5 252t-252.5 96q-165 0 -278 -96.5t-133 -255.5l-76 -618q-19 -159 71 -256t257 -97
q162 0 272.5 94.5t130.5 251.5l27 224q1 3 -1 5.5t-5 2.5h-324q-18 0 -18 20l4 31q4 21 22 21h389q19 0 19 -21l-33 -268q-25 -198 -160.5 -315t-335.5 -117z" />
    <glyph glyph-name="H" unicode="H" horiz-adv-x="1323" 
d="M1165 1413q0 9 7 15t16 6h37q18 0 18 -21l-172 -1393q-3 -20 -22 -20h-37q-19 0 -19 20l80 654q1 3 -1 5.5t-5 2.5h-721q-8 0 -8 -8l-82 -654q0 -9 -7 -14.5t-16 -5.5h-36q-20 0 -17 20l170 1393q4 21 23 21h37q9 0 14 -6t4 -15l-80 -649q0 -8 6 -8h721q10 0 10 8z" />
    <glyph glyph-name="I" unicode="I" horiz-adv-x="509" 
d="M197 0q-20 0 -17 20l170 1393q4 21 23 21h37q9 0 14 -6t4 -15l-172 -1393q0 -9 -7 -14.5t-16 -5.5h-36z" />
    <glyph glyph-name="J" unicode="J" horiz-adv-x="1142" 
d="M455 -16q-194 0 -298 112.5t-81 298.5l14 105q0 9 6.5 14.5t14.5 5.5h39q19 0 16 -20l-12 -107q-19 -152 66 -245t243 -93q160 0 268 93t127 245l125 1020q1 9 8 15t15 6h36q20 0 17 -21l-125 -1018q-23 -186 -154 -298.5t-325 -112.5z" />
    <glyph glyph-name="K" unicode="K" horiz-adv-x="1200" 
d="M197 0q-20 0 -17 20l170 1393q4 21 23 21h37q9 0 14 -6t4 -15l-92 -745q0 -4 3.5 -5.5t6.5 1.5l797 759q11 11 24 11h41q12 0 16 -7t-5 -18l-574 -559q-5 -5 -2 -12l453 -813q6 -9 1 -17t-16 -8h-49q-15 0 -22 12l-428 766q0 3 -4 4t-7 -2l-245 -225q-4 -4 -4 -10
l-66 -525q0 -9 -7 -14.5t-16 -5.5h-36z" />
    <glyph glyph-name="L" unicode="L" horiz-adv-x="1126" 
d="M197 0q-20 0 -17 20l170 1393q4 21 23 21h37q9 0 14 -6t4 -15l-164 -1333q0 -8 6 -8h721q9 0 14.5 -6t4.5 -15l-4 -31q-3 -20 -23 -20h-786z" />
    <glyph glyph-name="M" unicode="M" horiz-adv-x="1419" 
d="M197 0q-20 0 -17 20l170 1393q4 21 23 21h41q14 0 22 -15l320 -647q2 -3 6 -3t6 3l485 647q11 15 25 15h41q19 0 16 -21l-170 -1393q-3 -20 -22 -20h-39q-8 0 -13 5.5t-4 14.5l154 1252q0 15 -10 2l-443 -596q-11 -14 -26 -14h-19q-15 0 -22 14l-301 596q-1 4 -3 5t-4 -1
t-3 -6l-154 -1252q0 -9 -7 -14.5t-16 -5.5h-36z" />
    <glyph glyph-name="N" unicode="N" horiz-adv-x="1351" 
d="M197 0q-20 0 -17 20l170 1393q4 21 23 21h39q14 0 22 -15l596 -1249q1 -4 3 -5t4 1t3 6l152 1241q4 21 22 21h39q9 0 14 -6t3 -15l-170 -1393q-3 -20 -23 -20h-43q-13 0 -20 14l-594 1252q-3 6 -6.5 5t-3.5 -7l-154 -1244q0 -9 -7 -14.5t-16 -5.5h-36z" />
    <glyph glyph-name="O" unicode="O" horiz-adv-x="1234" 
d="M573 -16q-202 0 -310 126t-83 330l70 551q25 206 163.5 332.5t340.5 126.5q204 0 313 -126.5t84 -332.5l-68 -551q-25 -204 -165.5 -330t-344.5 -126zM584 55q168 0 284 105t138 276l67 557q22 173 -68.5 279t-259.5 106q-167 0 -282 -106t-137 -279l-68 -557
q-22 -171 68 -276t258 -105z" />
    <glyph glyph-name="P" unicode="P" horiz-adv-x="1169" 
d="M860 1438q164 0 252 -105.5t66 -277.5q-20 -171 -134 -275t-280 -104h-434q-7 0 -11 -8l-77 -648q-3 -20 -23 -20h-39q-19 0 -16 20l172 1397q0 9 6 15t14 6h504zM770 745q132 0 223.5 85.5t106.5 222.5q19 140 -51 225.5t-201 85.5h-434q-8 0 -8 -8l-74 -602q-1 -3 1 -6
t5 -3h432z" />
    <glyph glyph-name="Q" unicode="Q" horiz-adv-x="1128" 
d="M702 1450q195 0 299.5 -121t79.5 -319l-71 -588q-23 -184 -142.5 -302.5t-296.5 -133.5q-10 0 -10 -9l-24 -208q-1 -9 -8 -15t-15 -6h-39q-19 0 -16 21l24 208q2 3 0 6t-6 3q-174 15 -265.5 133t-68.5 303l72 588q25 198 158.5 319t328.5 121zM932 420l72 594
q22 163 -64 263.5t-246 100.5t-270.5 -100.5t-130.5 -263.5l-72 -594q-20 -163 65.5 -264t243.5 -101q161 0 271.5 101t130.5 264z" />
    <glyph glyph-name="R" unicode="R" horiz-adv-x="1214" 
d="M1012 0q-20 0 -23 14l-231 668q-3 6 -8 6h-404q-8 0 -8 -8l-82 -660q0 -9 -7 -14.5t-16 -5.5h-36q-20 0 -17 20l170 1397q4 21 23 21h487q164 0 251 -105t67 -274q-19 -146 -110 -244.5t-226 -120.5q-9 -3 -6 -10l227 -659q4 -10 -0.5 -17.5t-15.5 -7.5h-35zM430 1364
q-6 0 -10 -8l-72 -590q0 -8 6 -8h420q130 0 219.5 83.5t106.5 217.5q17 137 -52.5 221t-199.5 84h-418z" />
    <glyph glyph-name="S" unicode="S" horiz-adv-x="1159" 
d="M549 -16q-213 0 -325.5 98.5t-92.5 263.5l10 72q0 9 7 14.5t16 5.5h33q18 0 18 -20l-8 -66q-17 -133 79 -215t277 -82q174 0 277 76t118 207q8 62 -7.5 109.5t-61 91.5t-111 82.5t-172.5 89.5q-91 42 -134 64t-99.5 59.5t-79 72t-36 86t-5.5 115.5q20 165 139 253.5
t316 88.5q215 0 321.5 -99t85.5 -268l-6 -49q-3 -20 -23 -20h-36q-19 0 -19 20l6 43q18 137 -71.5 219t-270.5 82q-162 0 -256.5 -68t-109.5 -198q-16 -122 54.5 -183.5t276.5 -152.5q105 -48 173 -88t121.5 -91.5t73.5 -113.5t11 -139q-21 -164 -149 -262t-340 -98z" />
    <glyph glyph-name="T" unicode="T" horiz-adv-x="1116" 
d="M1133 1434q8 0 12.5 -6t3.5 -15l-4 -31q-3 -20 -23 -20h-399q-8 0 -8 -8l-164 -1334q-3 -20 -23 -20h-36q-9 0 -14.5 5.5t-4.5 14.5l164 1334q0 8 -6 8h-385q-8 0 -13 5.5t-4 14.5l4 31q3 21 23 21h877z" />
    <glyph glyph-name="U" unicode="U" horiz-adv-x="1302" 
d="M610 -16q-203 0 -312.5 122.5t-84.5 321.5l121 985q4 21 22 21h39q8 0 13 -6t4 -15l-121 -991q-20 -165 69.5 -266t257.5 -101q170 0 285 101t135 266l123 991q3 21 23 21h37q18 0 18 -21l-121 -985q-25 -200 -164.5 -322t-343.5 -122z" />
    <glyph glyph-name="V" unicode="V" horiz-adv-x="1138" 
d="M506 0q-18 0 -21 16l-272 1395q-3 23 18 23h39q6 0 13 -5t8 -12l250 -1288q0 -3 2 -4t5 0t5 4l565 1288q7 17 25 17h37q22 0 12 -23l-617 -1395q-6 -16 -24 -16h-45z" />
    <glyph glyph-name="W" unicode="W" horiz-adv-x="1742" 
d="M432 0q-15 0 -18 16l-224 1395q-1 10 5.5 16.5t15.5 6.5h39q13 0 20 -17l199 -1249q1 -4 5 -4t5 4l477 1247q8 19 25 19h41q16 0 20 -19l181 -1247q3 -10 10 0l508 1249q10 17 24 17h37q11 0 16 -6.5t1 -16.5l-570 -1395q-6 -16 -24 -16h-41q-19 0 -19 18l-176 1266
q0 3 -1.5 4t-3.5 0t-3 -4l-483 -1266q-7 -18 -25 -18h-41z" />
    <glyph glyph-name="X" unicode="X" horiz-adv-x="1130" 
d="M59 0q-12 0 -14 7t6 18l514 686q5 5 2 12l-346 686q-5 11 -1 18t16 7h40q16 0 23 -15l317 -633q2 -3 7 -3t6 3l471 633q15 15 26 15h41q12 0 14.5 -7t-5.5 -18l-514 -688q-6 -6 -3 -12l347 -684q5 -11 1 -18t-16 -7h-41q-15 0 -22 14l-316 631q-2 3 -6 3t-6 -3l-473 -631
q-11 -14 -27 -14h-41z" />
    <glyph glyph-name="Y" unicode="Y" horiz-adv-x="1081" 
d="M483 0q-18 0 -18 20l80 648v10l-326 731q-5 11 0 18t17 7h36q16 0 23 -15l293 -657q2 -3 6 -3t6 3l455 657q11 15 24 15h39q11 0 14 -7t-4 -18l-505 -731q-2 -2 -2 -10l-80 -648q-3 -20 -23 -20h-35z" />
    <glyph glyph-name="Z" unicode="Z" horiz-adv-x="1083" 
d="M82 0q-19 0 -19 20l7 39q0 7 10 27l919 1266q3 3 1.5 6.5t-5.5 3.5h-747q-8 0 -13 5.5t-4 14.5l5 31q4 21 22 21h823q19 0 19 -21l-6 -39q0 -4 -11 -26l-919 -1266q-3 -3 -1.5 -6.5t5.5 -3.5h747q8 0 13 -6t4 -15l-4 -31q0 -9 -7 -14.5t-16 -5.5h-823z" />
    <glyph glyph-name="bracketleft" unicode="[" horiz-adv-x="720" 
d="M16 -223q-18 0 -18 20l215 1743q3 21 23 21h335q9 0 14 -6t3 -15l-4 -31q0 -9 -6.5 -14.5t-14.5 -5.5h-270q-10 0 -10 -8l-199 -1624q0 -9 6 -9h272q19 0 19 -20l-4 -31q-3 -20 -23 -20h-338z" />
    <glyph glyph-name="backslash" unicode="\" horiz-adv-x="628" 
d="M520 23q1 -10 -5 -16.5t-17 -6.5h-35q-17 0 -23 16l-235 1395q-3 23 20 23h37q18 0 21 -17z" />
    <glyph glyph-name="bracketright" unicode="]" horiz-adv-x="720" 
d="M594 -203q-1 -9 -8 -14.5t-15 -5.5h-338q-21 0 -18 20l4 31q3 20 23 20h272q8 0 8 9l201 1624q0 8 -8 8h-271q-19 0 -16 20l4 31q0 9 7 15t16 6h336q8 0 12.5 -6t3.5 -15z" />
    <glyph glyph-name="asciicircum" unicode="^" horiz-adv-x="874" 
d="M152 639q-11 0 -15 7.5t2 17.5l389 753q6 17 23 17h43q15 0 18 -17l207 -753q3 -10 -3 -17.5t-17 -7.5h-29q-17 0 -20 16l-183 686q0 6 -4.5 6t-5.5 -6l-352 -686q-5 -16 -23 -16h-30z" />
    <glyph glyph-name="underscore" unicode="_" horiz-adv-x="925" 
d="M47 0q-19 0 -16 20l4 29q0 9 6 15t14 6h754q18 0 18 -21l-4 -29q-3 -20 -22 -20h-754z" />
    <glyph glyph-name="grave" unicode="`" horiz-adv-x="358" 
d="M387 1210q4 -10 -0.5 -17t-15.5 -7h-29q-12 0 -23 14l-102 227q-5 11 -0.5 18t16.5 7h39q18 0 21 -14z" />
    <glyph glyph-name="a" unicode="a" 
d="M885 1008q3 20 22 20h37q19 0 19 -20l-121 -988q-1 -9 -8 -14.5t-15 -5.5h-39q-19 0 -16 20l14 115q0 4 -1.5 5.5t-4 0.5t-4.5 -4q-52 -72 -129 -112.5t-168 -40.5q-134 0 -218.5 74t-98.5 196q-9 74 14 258q24 193 47 260q45 124 147 198t238 74q92 0 158.5 -40.5
t101.5 -112.5q2 -3 4.5 -4t4 0.5t1.5 5.5zM776 274q15 35 23.5 79t21.5 159q15 122 17 166.5t-4 77.5q-6 95 -68 156t-166 61q-106 0 -189 -60.5t-116 -154.5q-16 -39 -25.5 -84t-23.5 -158q-14 -115 -16 -164.5t3 -77.5q6 -96 75 -157.5t177 -61.5q107 0 183.5 62
t107.5 157z" />
    <glyph glyph-name="b" unicode="b" horiz-adv-x="1062" 
d="M954 772q8 -69 -16 -260q-20 -184 -49 -258q-44 -122 -145.5 -196t-237.5 -74q-89 0 -155.5 39.5t-102.5 109.5q-1 3 -3 4t-4 -0.5t-3 -5.5l-13 -111q-3 -20 -22 -20h-37q-9 0 -14.5 5.5t-4.5 14.5l172 1393q0 9 6.5 15t14.5 6h39q19 0 16 -21l-63 -516q0 -4 1.5 -5.5
t4 -0.5t4.5 4q110 149 295 149q136 0 220.5 -74.5t96.5 -197.5zM815 274q10 30 15 48.5t14 67t18 126.5q22 177 10 242q-11 94 -78 154.5t-173 60.5q-103 0 -179.5 -61t-107.5 -156q-16 -38 -25.5 -82t-23.5 -162q-13 -119 -15.5 -164t2.5 -74q8 -95 69.5 -157t168.5 -62
t190.5 61t114.5 158z" />
    <glyph glyph-name="c" unicode="c" horiz-adv-x="1017" 
d="M494 -16q-139 0 -225.5 74.5t-104.5 199.5q-10 88 8 258q17 148 55 256q45 123 151 197.5t245 74.5q137 0 227 -72t104 -181q4 -18 4 -54q0 -19 -20 -22l-37 -4q-18 -3 -18 18l-2 29q-8 91 -81 153t-188 62q-116 0 -200.5 -64t-116.5 -168q-29 -95 -45 -227
q-16 -130 -12 -225q9 -106 77.5 -170t184.5 -64t205 62.5t114 154.5l4 11q6 20 27 16l33 -6q19 -4 14 -23q-5 -21 -10 -32q-37 -110 -146 -182t-247 -72z" />
    <glyph glyph-name="d" unicode="d" horiz-adv-x="1062" 
d="M934 1413q4 21 22 21h39q8 0 13 -6t4 -15l-170 -1393q-1 -9 -8 -14.5t-15 -5.5h-39q-19 0 -16 20l12 111q1 4 0 5.5t-3.5 0.5t-4.5 -4q-113 -149 -295 -149q-134 0 -218.5 74t-98.5 196q-9 74 14 258q24 193 47 260q45 124 147 198t238 74q92 0 157.5 -39t100.5 -110
q2 -3 4.5 -4t4 0.5t1.5 5.5zM778 274q15 35 23.5 79t21.5 159q15 122 17 166.5t-4 77.5q-6 95 -68 156t-166 61q-106 0 -189 -60.5t-116 -154.5q-16 -39 -25.5 -84t-23.5 -158q-14 -114 -16 -165t4 -77q6 -96 75 -157.5t176 -61.5t182.5 61.5t108.5 157.5z" />
    <glyph glyph-name="e" unicode="e" horiz-adv-x="1048" 
d="M500 55q103 0 183 49.5t124 133.5q9 18 27 12l24 -8q19 -6 10 -27q-53 -104 -153.5 -167.5t-227.5 -63.5q-136 0 -220 71t-105 193q-11 74 10 268q22 180 47 252q45 125 150.5 200.5t244.5 75.5q148 0 235.5 -80t96.5 -216q4 -60 -16 -232q-3 -22 -23 -22h-651
q-7 0 -10 -9q-18 -169 -15 -196q8 -106 79 -170t190 -64zM606 973q-117 0 -201 -63.5t-116 -166.5q-17 -56 -33 -176q0 -8 8 -8h586q8 0 8 8q15 131 12 172q-9 105 -78.5 169.5t-185.5 64.5z" />
    <glyph glyph-name="f" unicode="f" horiz-adv-x="679" 
d="M649 1362q-124 0 -175.5 -62.5t-67.5 -199.5l-9 -64q0 -8 6 -8h242q20 0 17 -20l-5 -33q0 -9 -6.5 -15t-15.5 -6h-240q-8 0 -8 -8l-115 -926q-3 -20 -22 -20h-37q-18 0 -18 20l114 926q0 8 -8 8h-129q-8 0 -12.5 6t-3.5 15l4 33q3 20 22 20h129q8 0 8 8l9 66
q21 173 92.5 252.5t234.5 79.5h47q20 0 17 -21l-2 -31q-3 -20 -23 -20h-45z" />
    <glyph glyph-name="g" unicode="g" horiz-adv-x="1044" 
d="M887 1008q3 20 22 20h37q19 0 19 -20l-123 -996q-55 -435 -543 -420q-19 0 -16 21l6 35q3 20 22 20q212 -6 321.5 80t131.5 266l16 123q0 4 -1.5 5.5t-4 0.5t-4.5 -4q-108 -151 -299 -151q-130 0 -215 72.5t-100 197.5q-14 80 8 254t55 264q45 120 147 194t234 74
q188 0 262 -149q3 -6 6.5 -5t3.5 7zM791 289q13 51 34 225t21 227q-3 100 -68 166t-176 66q-110 0 -192 -65t-123 -167q-24 -69 -43 -225q-21 -168 -13 -225q11 -102 79.5 -168t178.5 -66q114 0 194 66.5t108 165.5z" />
    <glyph glyph-name="h" unicode="h" horiz-adv-x="1064" 
d="M649 1042q149 0 230.5 -95.5t62.5 -250.5l-84 -676q0 -9 -6.5 -14.5t-15.5 -5.5h-37q-19 0 -19 20l82 662q15 127 -50.5 208t-184.5 81q-130 0 -218.5 -79t-103.5 -206l-82 -666q-3 -20 -22 -20h-37q-9 0 -14.5 5.5t-4.5 14.5l172 1393q0 9 6.5 15t14.5 6h39q19 0 16 -21
l-63 -516q0 -6 2.5 -7.5t5.5 3.5q109 149 311 149z" />
    <glyph glyph-name="i" unicode="i" horiz-adv-x="475" 
d="M352 1253q-34 0 -53.5 22t-15.5 56q3 31 28.5 52.5t59.5 21.5t53 -21t16 -53q-5 -34 -29.5 -56t-58.5 -22zM178 0q-19 0 -16 20l121 988q3 20 22 20h37q21 0 18 -20l-120 -988q-3 -20 -23 -20h-39z" />
    <glyph glyph-name="j" unicode="j" horiz-adv-x="446" 
d="M338 1251q-34 0 -53 21.5t-15 56.5t28.5 55.5t57.5 20.5q37 0 56.5 -20.5t15.5 -55.5q-5 -35 -29 -56.5t-61 -21.5zM-121 -430q-19 0 -16 20l4 31q0 9 6.5 15t15.5 6q103 5 165.5 64t74.5 163l139 1139q3 20 23 20h39q8 0 12.5 -5.5t3.5 -14.5l-139 -1137
q-17 -142 -101 -219t-227 -82z" />
    <glyph glyph-name="k" unicode="k" horiz-adv-x="964" 
d="M164 0q-9 0 -14.5 5.5t-4.5 14.5l172 1393q0 9 6.5 15t14.5 6h39q19 0 16 -21l-110 -901q0 -4 3.5 -5.5t6.5 1.5l551 510q10 10 24 10h52q11 0 13.5 -7t-7.5 -17l-283 -269q-6 -6 -4 -10l219 -700q3 -10 -3 -17.5t-17 -7.5h-39q-18 0 -21 16l-198 652q-4 9 -11 2
l-295 -271q-6 -3 -6 -10l-45 -369q-3 -20 -22 -20h-37z" />
    <glyph glyph-name="l" unicode="l" horiz-adv-x="444" 
d="M166 0q-9 0 -14.5 5.5t-4.5 14.5l172 1393q0 9 6.5 15t14.5 6h39q19 0 16 -21l-170 -1393q-3 -20 -22 -20h-37z" />
    <glyph glyph-name="m" unicode="m" horiz-adv-x="1644" 
d="M1247 1042q144 0 221 -89t58 -244l-84 -689q-1 -9 -8 -14.5t-15 -5.5h-39q-19 0 -16 20l82 674q15 128 -47.5 202.5t-177.5 74.5q-125 0 -208 -73t-100 -200l-82 -678q-3 -20 -22 -20h-39q-8 0 -12.5 5.5t-3.5 14.5l82 674q17 127 -45.5 202t-178.5 75q-125 0 -207.5 -73
t-97.5 -200l-84 -678q-3 -20 -22 -20h-37q-9 0 -14.5 5.5t-4.5 14.5l121 988q3 20 23 20h39q8 0 12.5 -5.5t3.5 -14.5l-12 -103q-1 -4 0 -5.5t3.5 -0.5t4.5 4q103 139 299 139q104 0 173.5 -48t94.5 -136q1 -3 2.5 -4t3 0t2.5 4q49 90 135.5 137t196.5 47z" />
    <glyph glyph-name="n" unicode="n" horiz-adv-x="1064" 
d="M649 1042q149 0 230.5 -95.5t62.5 -250.5l-84 -676q0 -9 -6.5 -14.5t-15.5 -5.5h-37q-19 0 -19 20l82 662q15 127 -50.5 208t-184.5 81q-130 0 -218.5 -79t-103.5 -206l-82 -666q-3 -20 -22 -20h-37q-9 0 -14.5 5.5t-4.5 14.5l121 988q3 20 23 20h39q8 0 12.5 -5.5
t3.5 -14.5l-14 -111q0 -6 2.5 -7.5t5.5 3.5q109 149 311 149z" />
    <glyph glyph-name="o" unicode="o" 
d="M489 -16q-140 0 -226 74.5t-101 199.5q-11 72 10 258q22 177 49 256q46 123 152.5 197.5t244.5 74.5q139 0 228.5 -75t101.5 -197q8 -65 -14 -256q-23 -189 -47 -258q-46 -124 -153 -199t-245 -75zM498 55q115 0 200.5 64.5t118.5 169.5q18 53 39 225q21 192 18 225
q-8 105 -79 169.5t-187 64.5q-114 0 -199 -64.5t-120 -169.5q-20 -63 -39 -225q-21 -184 -17 -225q9 -106 79 -170t186 -64z" />
    <glyph glyph-name="p" unicode="p" horiz-adv-x="1079" 
d="M969 774q9 -63 -12 -235q-1 -5 -1 -7.5t-1 -7t-1 -8.5q-20 -187 -47 -260q-43 -124 -146 -198t-239 -74q-91 0 -157.5 39.5t-100.5 109.5q-1 3 -3 4t-4 -0.5t-3 -5.5l-64 -516q0 -9 -6.5 -15t-15.5 -6h-37q-18 0 -18 21l172 1393q3 20 22 20h37q21 0 18 -20l-14 -111
q0 -4 1.5 -5.5t4 -0.5t4.5 4q52 70 128 109.5t167 39.5q134 0 218 -74t98 -196zM827 270q17 39 27.5 84t22.5 158q14 114 16 165t-4 77q-6 96 -75 157.5t-177 61.5q-105 0 -181.5 -62t-109.5 -157q-13 -36 -22 -80t-23 -158q-14 -120 -16.5 -166.5t4.5 -77.5q8 -95 70 -156
t165 -61q105 0 187.5 61t115.5 154z" />
    <glyph glyph-name="q" unicode="q" horiz-adv-x="1079" 
d="M885 1008q3 20 22 20h37q19 0 19 -20l-172 -1393q0 -9 -7 -15t-16 -6h-37q-18 0 -18 21l63 516q1 4 0 5.5t-3.5 0.5t-4.5 -4q-52 -70 -128 -109.5t-167 -39.5q-136 0 -220.5 74t-98.5 198q-5 62 16 260q23 188 51 258q44 122 145.5 196t235.5 74q91 0 157.5 -39.5
t100.5 -109.5q2 -3 4.5 -4t4 0.5t1.5 5.5zM776 272q16 38 25 82.5t22 161.5q23 183 15 238q-10 96 -70.5 157.5t-167.5 61.5t-191 -61.5t-114 -157.5q-26 -67 -47 -242q-22 -177 -10 -242q9 -93 77 -154t174 -61q103 0 179.5 61t107.5 156z" />
    <glyph glyph-name="r" unicode="r" horiz-adv-x="706" 
d="M629 1036q70 0 112 -22q16 -6 9 -27l-21 -41q-5 -19 -24 -10q-41 17 -97 14q-117 0 -205.5 -92t-103.5 -223l-76 -615q-3 -20 -22 -20h-37q-9 0 -14.5 5.5t-4.5 14.5l121 988q3 20 23 20h39q8 0 12.5 -5.5t3.5 -14.5l-18 -154q-1 -4 0 -6t3.5 -1t4.5 5q51 86 126.5 135
t168.5 49z" />
    <glyph glyph-name="s" unicode="s" horiz-adv-x="942" 
d="M440 -8q-155 0 -244 76t-75 186l4 29q0 9 6.5 14.5t15.5 5.5h35q20 0 17 -20l-2 -27q-9 -80 60 -138.5t189 -58.5t201 58.5t92 150.5q6 45 -6.5 77.5t-56 58.5t-68.5 36.5t-95 34.5q-18 7 -28 10q-61 20 -96.5 33.5t-82.5 39t-70.5 52t-38 68t-7.5 92.5
q13 121 116.5 193.5t256.5 72.5q154 0 239.5 -74.5t71.5 -189.5l-2 -6q-4 -21 -22 -21h-33q-9 0 -14.5 4.5t-3.5 10.5l2 12q9 84 -58.5 140.5t-189.5 56.5q-119 0 -197.5 -54t-89.5 -141q-5 -36 7 -66t30 -49t57 -39t67.5 -30.5t82.5 -28.5q141 -46 193 -75
q129 -72 115 -205q0 -4 -1 -9q-14 -124 -117.5 -202t-259.5 -78z" />
    <glyph glyph-name="t" unicode="t" horiz-adv-x="706" 
d="M657 979q-1 -9 -7.5 -15t-14.5 -6h-242q-8 0 -8 -8l-84 -680q-13 -110 30.5 -153t149.5 -43h45q8 0 13 -6t4 -15l-4 -30q0 -19 -21 -23h-51q-65 0 -110.5 11t-81 38.5t-48.5 79t-4 127.5l86 694q0 8 -6 8h-121q-9 0 -14 6t-4 15l4 29q0 9 6.5 14.5t15.5 5.5h121q8 0 8 8
l29 232q3 20 23 20h35q21 0 18 -20l-29 -232q0 -8 6 -8h242q19 0 16 -20z" />
    <glyph glyph-name="u" unicode="u" 
d="M885 1008q3 20 22 20h37q19 0 19 -20l-121 -988q-1 -9 -8 -14.5t-15 -5.5h-39q-19 0 -16 20l12 109q1 4 0 5.5t-3.5 0.5t-4.5 -4q-108 -145 -307 -145q-148 0 -230.5 91.5t-64.5 246.5l84 684q1 9 7.5 14.5t14.5 5.5h39q20 0 17 -20l-82 -666q-15 -130 49.5 -207.5
t187.5 -77.5q130 0 217.5 79t102.5 206z" />
    <glyph glyph-name="v" unicode="v" horiz-adv-x="903" 
d="M389 0q-16 0 -22 16l-207 990q-3 22 18 22h43q20 0 23 -16l178 -883q0 -3 2 -4t4.5 0t3.5 4l397 883q10 16 27 16h43q21 0 12 -22l-450 -990q-10 -16 -27 -16h-45z" />
    <glyph glyph-name="w" unicode="w" horiz-adv-x="1374" 
d="M334 0q-15 0 -21 16l-155 990q-3 22 20 22h35q20 0 20 -16l132 -891q1 -5 5 -5t7 5l352 891q3 16 23 16h41q15 0 18 -16l135 -889q2 -5 6 -5t6 5l353 889q6 16 22 16h39q23 0 14 -22l-403 -990q-6 -16 -22 -16h-43q-15 0 -21 16l-137 861q-2 5 -6 5t-6 -5l-347 -861
q-10 -16 -24 -16h-43z" />
    <glyph glyph-name="x" unicode="x" horiz-adv-x="894" 
d="M39 0q-11 0 -14 8t6 17l393 483q2 4 2 12l-274 484q-6 9 -2 16.5t16 7.5h39q17 0 22 -12l246 -432q1 -3 6 -3t6 3l344 432q10 12 27 12h43q12 0 14.5 -7.5t-6.5 -16.5l-391 -484q-3 -6 0 -12l272 -483q6 -9 1 -17t-17 -8h-41q-17 0 -22 12l-240 432q0 3 -4.5 3t-5.5 -3
l-350 -432q-7 -12 -25 -12h-45z" />
    <glyph glyph-name="y" unicode="y" horiz-adv-x="876" 
d="M31 -410q-6 0 -9 6t-2 15l3 31q3 20 18 20h12q47 1 79 10.5t58 27.5t53.5 61.5t51.5 92t65 140.5q5 9 2 12l-221 1000q-3 22 19 22h39q17 0 20 -16l191 -893q2 -5 6 -5t6 5l401 893q10 16 27 16h37q20 0 14 -22l-518 -1121q-45 -98 -79 -153.5t-73.5 -88.5t-80 -43
t-105.5 -10h-14z" />
    <glyph glyph-name="z" unicode="z" horiz-adv-x="872" 
d="M55 0q-19 0 -16 20l4 39q4 19 10 27l721 858q3 3 1.5 6.5t-5.5 3.5h-592q-20 0 -16 21l4 33q3 20 22 20h674q8 0 13 -5.5t4 -14.5l-5 -39q-4 -19 -12 -27l-723 -858q-3 -3 -2 -6.5t4 -3.5h598q9 0 14.5 -6t4.5 -15l-4 -33q-3 -20 -23 -20h-676z" />
    <glyph glyph-name="braceleft" unicode="{" horiz-adv-x="534" 
d="M287 -223q-96 0 -131.5 51.5t-20.5 171.5l55 455q10 87 -6.5 130t-62.5 54q-20 3 -17 20l5 33q3 18 20 21q50 12 78.5 55.5t38.5 128.5l53 440q15 120 63.5 172t143.5 52h96q9 0 14.5 -6t4.5 -15l-5 -31q-3 -20 -22 -20h-84q-59 0 -92 -38.5t-43 -123.5l-51 -426
q-12 -91 -39.5 -143.5t-75.5 -75.5q-9 -3 -2 -10q81 -51 61 -221l-55 -441q-9 -86 13.5 -124t82.5 -38h84q20 0 17 -20l-4 -31q0 -9 -7 -14.5t-16 -5.5h-96z" />
    <glyph glyph-name="bar" unicode="|" horiz-adv-x="296" 
d="M70 -164q-19 0 -19 21l207 1679q3 20 23 20h36q9 0 14.5 -5.5t4.5 -14.5l-207 -1679q-3 -21 -23 -21h-36z" />
    <glyph glyph-name="braceright" unicode="}" horiz-adv-x="534" 
d="M113 -223h-97q-18 0 -18 20l4 31q3 20 23 20h84q60 0 92.5 38t42.5 124l53 441q22 170 115 221q11 7 2 10q-82 46 -62 219l54 426q10 85 -13 123.5t-84 38.5h-82q-21 0 -18 20l4 31q3 21 23 21h96q97 0 131.5 -52t19.5 -172l-53 -440q-10 -85 7 -128.5t63 -55.5
q19 -3 16 -21l-4 -33q-3 -17 -20 -20q-50 -11 -78.5 -54t-38.5 -130l-56 -455q-13 -120 -61 -171.5t-145 -51.5z" />
    <glyph glyph-name="asciitilde" unicode="~" horiz-adv-x="962" 
d="M698 504q-44 0 -87.5 13.5t-60 23t-61.5 37.5q-80 49 -145 49q-103 0 -170 -86q-13 -20 -27 -6l-16 12q-16 11 -4 26q37 59 95.5 93t127.5 34q83 0 168 -55q3 -2 16.5 -10t18 -11t17 -10t19.5 -10t19.5 -8t22 -7.5t22.5 -5.5t26.5 -4t27.5 -1q31 0 58.5 13t43.5 27t45 44
q12 15 29 4l20 -15q12 -12 2 -28q-90 -119 -207 -119z" />
    <glyph glyph-name="uni00A0" unicode="&#xa0;" horiz-adv-x="397" 
 />
    <glyph glyph-name="exclamdown" unicode="&#xa1;" horiz-adv-x="620" 
d="M442 1450q39 0 64.5 -28.5t21.5 -69.5q-6 -40 -39 -68.5t-71 -28.5t-63 28.5t-21 68.5q6 41 37 69.5t71 28.5zM354 981q3 20 23 20h31q19 0 16 -20l-111 -936q-3 -20 -22 -20h-37q-21 0 -18 20z" />
    <glyph glyph-name="cent" unicode="&#xa2;" horiz-adv-x="1017" 
d="M844 457l2 10q6 19 26 16l33 -6q20 -3 15 -22q-4 -18 -11 -33q-35 -106 -140 -177t-239 -77q-8 0 -8 -8l-16 -140q-3 -20 -23 -20h-32q-20 0 -17 20l19 144q2 7 -7 10q-109 19 -176.5 90t-81.5 178q-12 82 7 258q17 148 55 256q40 107 125 177.5t200 89.5q9 3 9 10
l16 143q4 21 23 21h30q9 0 14.5 -6t4.5 -15l-17 -139q-4 -8 7 -8q132 -6 217.5 -77.5t97.5 -176.5q4 -18 4 -53q0 -20 -20 -23l-37 -4q-19 -3 -19 18l-2 29q-8 92 -80 153.5t-188 61.5t-201.5 -64t-116.5 -167q-29 -94 -45 -228q-16 -130 -12 -225q9 -106 77.5 -169.5
t184.5 -63.5t205.5 62.5t116.5 154.5z" />
    <glyph glyph-name="sterling" unicode="&#xa3;" horiz-adv-x="1200" 
d="M354 80q-10 -10 2 -10h719q19 0 19 -21l-4 -29q-3 -20 -23 -20h-813q-19 0 -16 20l4 33q0 15 16 25q55 30 95.5 104t52.5 168l34 293q0 8 -6 8h-158q-20 0 -16 21l2 26q4 21 23 21h157q9 0 9 8l43 342q22 173 129 273t276 108q128 6 206 -57t105 -189q3 -18 -16 -24
l-39 -11q-18 -6 -22 15q-39 202 -240 196q-137 -6 -221 -86.5t-103 -224.5l-41 -342q0 -8 7 -8h387q9 0 14 -6t4 -15l-4 -26q0 -9 -7 -15t-16 -6h-387q-8 0 -8 -8l-35 -289q-20 -172 -129 -274z" />
    <glyph glyph-name="currency" unicode="&#xa4;" horiz-adv-x="987" 
d="M899 616q-18 -136 -113 -239q-3 -7 2 -12l111 -132q11 -14 -6 -28l-27 -21q-15 -12 -26 2l-111 127q-5 5 -10 2q-114 -84 -244 -84q-124 0 -215 78q-7 3 -12 -2l-133 -121q-19 -16 -29 -2l-20 21q-14 14 0 28l137 123q6 6 2 13q-77 112 -60 247q14 130 113 240q4 8 0 12
l-111 131q-12 12 5 29l26 21q15 12 29 -2l106 -127q6 -6 13 -2q110 83 243 83q137 0 230 -90q6 -6 12 0l147 136q17 14 29 2l21 -21q14 -14 0 -29l-156 -139q-6 -3 -2 -12q64 -99 49 -232zM217 616q-17 -130 61.5 -221.5t204.5 -91.5t226.5 91.5t117.5 221.5
q15 129 -63.5 221.5t-202.5 92.5q-126 0 -227.5 -92.5t-116.5 -221.5z" />
    <glyph glyph-name="yen" unicode="&#xa5;" horiz-adv-x="1368" 
d="M1264 1434q11 0 14 -7t-4 -18l-481 -698q-5 -11 4 -11h256q21 0 18 -20l-2 -18q-3 -21 -22 -21h-277q-8 0 -8 -8l-25 -193q0 -8 6 -8h277q21 0 18 -20l-2 -19q-3 -20 -22 -20h-277q-8 0 -8 -8l-43 -345q-3 -20 -22 -20h-35q-9 0 -14.5 5.5t-4.5 14.5l43 345q0 8 -8 8
h-285q-21 0 -18 20l2 19q3 20 23 20h286q9 0 9 8l24 193q0 8 -8 8h-285q-9 0 -14 6t-4 15l2 18q3 20 22 20h267q8 0 8 11l-309 698q-5 11 -0.5 18t16.5 7h37q14 0 22 -15l293 -657q1 -3 6 -3t6 3l455 657q11 15 25 15h39z" />
    <glyph glyph-name="brokenbar" unicode="&#xa6;" horiz-adv-x="296" 
d="M188 811q-19 0 -16 20l86 705q3 20 23 20h36q9 0 14.5 -5.5t4.5 -14.5l-86 -705q-3 -20 -23 -20h-39zM70 -164q-19 0 -19 21l88 704q0 9 7 15t16 6h37q19 0 16 -21l-86 -704q-3 -21 -23 -21h-36z" />
    <glyph glyph-name="section" unicode="&#xa7;" horiz-adv-x="874" 
d="M350 -424q-131 0 -198.5 89.5t-47.5 240.5v31q1 9 8 14.5t15 5.5h39q19 0 16 -20l-2 -25q-13 -121 36.5 -193.5t145.5 -72.5q94 0 163 72.5t81 177.5q7 52 -6 94.5t-33 68t-57.5 48t-62.5 32.5t-66 23q-78 26 -130.5 62t-80.5 100q-32 79 -18 176q11 112 75 198
q76 98 189 125q6 1 6 4t-6 4q-84 35 -132 119t-36 187q16 128 109.5 219.5t224.5 91.5q126 0 196 -87.5t56 -223.5l-5 -27q-3 -20 -22 -20h-37q-18 0 -18 20l4 23q12 106 -39 175.5t-142 69.5q-98 0 -168 -75.5t-81 -176.5q-13 -102 45.5 -165t175.5 -103q138 -47 192 -131
q51 -83 35 -207q-12 -114 -74 -205q-67 -103 -176 -122q-10 -3 0 -7q84 -37 129.5 -113.5t32.5 -183.5q-17 -135 -111 -224t-225 -89zM428 242q139 0 213 106q42 65 55 158q12 115 -28 176q-62 92 -172 92q-61 0 -119 -35.5t-94 -91.5q-44 -66 -56 -149q-10 -93 19 -148
q54 -108 182 -108z" />
    <glyph glyph-name="dieresis" unicode="&#xa8;" horiz-adv-x="591" 
d="M258 1255q-33 0 -52 20.5t-16 53.5q5 30 28.5 51t55.5 21q30 0 47.5 -21t14.5 -51q-4 -32 -26.5 -53t-51.5 -21zM569 1255q-31 0 -49 21t-14 53q3 30 26.5 51t55.5 21q30 0 48 -21t13 -51q-3 -32 -26 -53t-54 -21z" />
    <glyph glyph-name="copyright" unicode="&#xa9;" horiz-adv-x="1771" 
d="M844 -16q-205 0 -358 95.5t-224.5 262t-46.5 371.5q19 156 89.5 293t177 234.5t247.5 153.5t295 56t281.5 -56t210.5 -153.5t120.5 -234.5t18.5 -293q-25 -205 -138 -371.5t-290 -262t-383 -95.5zM852 43q141 0 270 51.5t226 140.5t161.5 213t81.5 265
q23 193 -41.5 347.5t-203.5 242.5t-328 88q-190 0 -352 -88t-265.5 -243t-126.5 -347q-23 -188 42.5 -341.5t206.5 -241t329 -87.5zM891 346q-95 0 -144 55t-38 146l41 340q12 90 74 144t157 54q93 0 142.5 -53.5t39.5 -142.5v-4q-3 -19 -22 -19l-19 2q-9 0 -14 3.5t-4 9.5
l2 12q6 61 -30 99t-101 38q-69 0 -113.5 -37.5t-52.5 -99.5l-43 -356q-8 -60 28.5 -98t102.5 -38q65 0 111 38t53 98l2 6q0 9 6.5 15.5t15.5 6.5h19q10 0 14.5 -2t3.5 -6v-12q-10 -89 -75 -144t-156 -55z" />
    <glyph glyph-name="ordfeminine" unicode="&#xaa;" horiz-adv-x="638" 
d="M428 1151h152q10 0 10 8l6 62q10 78 -27 126t-125 48q-67 0 -115 -28.5t-65 -76.5q-9 -19 -26 -16l-19 4q-22 4 -14 22q24 68 90.5 109t159.5 41q111 0 163.5 -61t40.5 -164l-55 -445q-3 -20 -22 -20h-21q-21 0 -18 20l6 51q0 11 -8 3q-75 -84 -217 -84
q-93 0 -148.5 45.5t-44.5 140.5q12 100 91.5 157.5t205.5 57.5zM338 803q54 0 102.5 17.5t83.5 56t41 92.5l15 118q1 3 -1.5 6t-5.5 3h-151q-97 0 -160.5 -40t-73.5 -116q-9 -68 33.5 -102.5t116.5 -34.5zM86 573q4 21 23 21h469q20 0 16 -21l-2 -24q-4 -21 -23 -21h-469
q-20 0 -16 21z" />
    <glyph glyph-name="guillemotleft" unicode="&#xab;" horiz-adv-x="1099" 
d="M553 244q6 -9 2 -17t-16 -8h-33q-17 0 -23 12l-233 330q-12 16 4 29l313 330q12 12 27 12h33q12 0 14 -8t-6 -17l-311 -325q-2 -4 -2 -13zM854 244q6 -9 3 -17t-15 -8h-35q-14 0 -23 12l-233 330q-11 14 4 29l315 330q9 12 25 12h35q11 0 13 -8t-7 -17l-309 -325
q-6 -6 -2 -13z" />
    <glyph glyph-name="logicalnot" unicode="&#xac;" horiz-adv-x="1007" 
d="M129 668q3 20 23 20h792q19 0 19 -20l-35 -283q-3 -20 -23 -20h-33q-8 0 -12.5 5.5t-3.5 14.5l27 225q1 3 -1 5.5t-5 2.5h-734q-19 0 -16 21z" />
    <glyph glyph-name="uni00AD" unicode="&#xad;" horiz-adv-x="770" 
d="M143 614q-18 0 -18 21l4 31q3 20 23 20h557q19 0 16 -20l-4 -31q0 -9 -7 -15t-16 -6h-555z" />
    <glyph glyph-name="registered" unicode="&#xae;" horiz-adv-x="901" 
d="M592 1464q160 0 258 -114t78 -277q-20 -164 -146 -278.5t-286 -114.5t-258 114.5t-78 278.5q20 163 146 277t286 114zM502 733q138 0 246.5 99.5t125.5 240.5q17 140 -67 239t-223 99q-137 0 -246.5 -99.5t-126.5 -238.5q-17 -141 68.5 -240.5t222.5 -99.5zM672 1145
q-9 -68 -68 -90q-7 -2 -4 -11l39 -131q3 -10 -3 -17t-15 -7h-11q-17 0 -20 16l-39 135q-3 7 -8 7h-43q-8 0 -8 -9l-17 -129q-3 -20 -22 -20h-9q-19 0 -16 20l39 322q3 20 22 20h97q44 0 67.5 -30t18.5 -76zM520 1208q-6 0 -10 -8l-12 -106q0 -9 6 -9h57q25 0 42 16t20 44
q4 29 -9.5 46t-38.5 17h-55z" />
    <glyph glyph-name="macron" unicode="&#xaf;" horiz-adv-x="509" 
d="M131 1231q-19 0 -16 20l2 25q3 20 22 20h471q20 0 17 -20l-2 -25q-3 -20 -23 -20h-471z" />
    <glyph glyph-name="degree" unicode="&#xb0;" horiz-adv-x="761" 
d="M465 1012q-132 0 -210.5 93t-61.5 228q15 135 117 228.5t233 93.5q132 0 211.5 -93.5t62.5 -228.5t-118.5 -228t-233.5 -93zM471 1075q105 0 187 75t96 183q13 109 -50 183.5t-169 74.5q-105 0 -186 -75t-93 -183q-14 -108 48.5 -183t166.5 -75z" />
    <glyph glyph-name="plusminus" unicode="&#xb1;" horiz-adv-x="1007" 
d="M586 725q0 -8 6 -8h356q20 0 17 -21l-2 -28q-3 -21 -23 -21h-356q-9 0 -9 -8l-45 -356q0 -9 -6 -15t-14 -6h-29q-18 0 -18 21l45 356q0 8 -8 8h-353q-18 0 -18 21l4 28q3 21 23 21h354q8 0 8 8l45 375q1 9 8 14.5t15 5.5h28q20 0 17 -20zM68 0q-20 0 -17 20l2 29
q3 21 23 21h792q19 0 19 -21l-4 -29q-3 -20 -23 -20h-792z" />
    <glyph glyph-name="uni00B2" unicode="&#xb2;" horiz-adv-x="630" 
d="M170 930q-18 0 -18 20l4 23q0 12 12 24q32 37 142.5 161.5t168.5 191.5q133 152 144 237q8 69 -33.5 111.5t-116.5 42.5q-73 0 -122.5 -43t-55.5 -113l-4 -33q-1 -9 -8 -14.5t-15 -5.5h-26q-20 0 -17 20l4 41q12 93 82.5 150t169.5 57q103 0 159.5 -60t45.5 -153
q-14 -106 -145 -258q-101 -120 -293 -332q-7 -10 2 -10h371q8 0 12.5 -5.5t3.5 -14.5l-2 -17q-3 -20 -23 -20h-442z" />
    <glyph glyph-name="uni00B3" unicode="&#xb3;" horiz-adv-x="636" 
d="M641 1352q24 -67 12 -166q-9 -90 -47 -152q-34 -57 -90.5 -88t-126.5 -31q-82 0 -131 44.5t-63 121.5q-6 28 -2 82q3 21 22 21h27q19 0 16 -21q-4 -40 -4 -59q5 -57 43 -92t98 -35q100 0 152 82q32 57 41 127q12 84 -13 141q-28 82 -126 82q-19 0 -29 -4q-19 -3 -27 8
l-8 12q-11 14 4 29l240 264q3 3 1.5 7t-5.5 4h-338q-9 0 -14.5 5.5t-4.5 14.5l2 16q4 21 23 21h409q20 0 17 -21l-2 -22q-3 -16 -10 -25l-224 -250q-3 -3 -1.5 -6.5t5.5 -3.5q112 -9 154 -106z" />
    <glyph glyph-name="acute" unicode="&#xb4;" horiz-adv-x="358" 
d="M199 1186q-11 0 -14.5 7t3.5 17l150 228q6 14 24 14h39q11 0 14.5 -7t-3.5 -18l-160 -227q-10 -14 -25 -14h-28z" />
    <glyph glyph-name="uni00B5" unicode="&#xb5;" horiz-adv-x="1079" 
d="M901 1008q0 9 7 14.5t16 5.5h37q18 0 18 -20l-123 -988q0 -9 -6.5 -14.5t-15.5 -5.5h-37q-19 0 -19 20l15 109q0 4 -1.5 5.5t-3.5 0.5t-4 -4q-108 -145 -307 -145q-156 0 -235 98q-10 6 -13 -4l-57 -469q0 -9 -6.5 -15t-15.5 -6h-37q-9 0 -14 6t-3 15l170 1397
q3 20 23 20h39q8 0 12.5 -5.5t3.5 -14.5l-82 -666q-15 -131 49.5 -208t188.5 -77q128 0 216 79t103 206z" />
    <glyph glyph-name="paragraph" unicode="&#xb6;" horiz-adv-x="1101" 
d="M625 1434h379q9 0 14 -6t4 -15l-221 -1802q-3 -21 -23 -21h-24q-20 0 -17 21l215 1749q0 8 -8 8h-278q-11 0 -11 -8l-215 -1749q0 -9 -6.5 -15t-15.5 -6h-27q-18 0 -18 21l110 893q0 8 -6 8q-156 7 -247 141t-68 320q23 192 158 326.5t305 134.5z" />
    <glyph glyph-name="periodcentered" unicode="&#xb7;" horiz-adv-x="192" 
d="M12 10q-40 0 -64 29t-18 70q4 39 37 67.5t70 28.5q39 0 65.5 -28.5t22.5 -67.5q-4 -41 -37.5 -70t-75.5 -29z" />
    <glyph glyph-name="cedilla" unicode="&#xb8;" horiz-adv-x="251" 
d="M-66 -369q-19 3 -12 25l6 16q9 20 27 17q56 -13 100 5t62 73q29 97 -74 208q-9 9 -7.5 17t13.5 8h19q16 0 24 -8q128 -114 86 -248q-19 -55 -62.5 -85.5t-89.5 -32.5t-92 5z" />
    <glyph glyph-name="uni00B9" unicode="&#xb9;" horiz-adv-x="358" 
d="M356 1784q12 6 25 6h33q9 0 14 -6t4 -15l-100 -819q-3 -20 -23 -20h-26q-20 0 -17 20l92 760q2 3 -0.5 6t-5.5 2l-78 -22q-10 -3 -16 2t-4 16l2 12q0 16 18 23z" />
    <glyph glyph-name="ordmasculine" unicode="&#xba;" horiz-adv-x="669" 
d="M391 752q-90 0 -145.5 48t-69.5 132q-7 57 6 170q16 116 33 168q31 83 100.5 131.5t159.5 48.5t147 -48.5t68 -131.5q6 -47 -8 -168q-12 -112 -33 -170q-31 -81 -100.5 -130.5t-157.5 -49.5zM397 809q68 0 120.5 40t74.5 107q11 29 26 146q14 119 11 143
q-8 67 -50.5 107.5t-111.5 40.5t-120 -40t-75 -108q-12 -38 -26 -143q-13 -110 -8 -146q6 -69 47 -108t112 -39zM121 528q-19 0 -19 21l4 24q4 21 23 21h481q8 0 13 -6t4 -15l-2 -24q-1 -9 -8 -15t-15 -6h-481z" />
    <glyph glyph-name="guillemotright" unicode="&#xbb;" horiz-adv-x="1099" 
d="M236 219q-12 0 -14 8t7 17l310 325q4 9 2 13l-232 325q-6 9 -1.5 17t16.5 8h32q17 0 23 -12l233 -330q14 -14 -4 -29l-313 -330q-12 -12 -27 -12h-32zM537 219q-11 0 -13.5 8t6.5 17l310 325q6 6 2 13l-230 325q-6 9 -2.5 17t15.5 8h34q14 0 23 -12l233 -330
q11 -14 -4 -29l-315 -330q-9 -12 -25 -12h-34z" />
    <glyph glyph-name="onequarter" unicode="&#xbc;" horiz-adv-x="1556" 
d="M287 594q0 -9 -7 -15t-16 -6h-24q-19 0 -19 21l94 760q0 4 -1.5 6.5t-4.5 1.5l-80 -23q-10 -3 -15 2.5t-3 16.5v12q3 18 20 23l82 34q14 7 25 7h33q19 0 16 -21zM1217 1419q15 15 26 15h27q12 0 15 -7t-5 -18l-1044 -1395q-11 -14 -25 -14h-27q-12 0 -14 7t6 18z
M1456 301q8 0 13 -5.5t4 -14.5l-3 -21q-3 -20 -22 -20h-37q-3 0 -6.5 -3t-3.5 -6l-27 -211q0 -9 -6 -14.5t-14 -5.5h-27q-18 0 -18 20l26 211q0 9 -6 9h-342q-18 0 -18 20l4 21q0 11 8 24l313 541q6 14 23 14h24q11 0 14 -7t-3 -17l-303 -525q-2 -3 0 -6.5t6 -3.5h280
q11 0 11 8l24 197q0 9 7 14.5t16 5.5h24q19 0 19 -20l-25 -197q0 -8 6 -8h39z" />
    <glyph glyph-name="onehalf" unicode="&#xbd;" horiz-adv-x="1546" 
d="M287 594q0 -9 -7 -15t-16 -6h-24q-19 0 -19 21l94 760q0 4 -1.5 6.5t-4.5 1.5l-80 -23q-10 -3 -15 2.5t-3 16.5v12q3 18 20 23l82 34q14 7 25 7h33q19 0 16 -21zM1217 1419q15 15 26 15h27q12 0 15 -7t-5 -18l-1044 -1395q-11 -14 -25 -14h-27q-12 0 -14 7t6 18zM1047 68
q-7 -11 4 -11h368q19 0 19 -20l-2 -17q-1 -9 -8 -14.5t-15 -5.5h-444q-8 0 -13 5.5t-4 14.5l2 23q3 15 13 25q51 58 155.5 174.5t157.5 177.5q130 153 141 237q9 69 -32 111.5t-115 42.5t-123.5 -43t-56.5 -113l-4 -32q-4 -21 -23 -21h-27q-8 0 -12.5 6t-3.5 15l4 41
q13 93 83 149.5t169 56.5q103 0 160 -60t45 -153q-11 -101 -146 -258q-103 -121 -292 -331z" />
    <glyph glyph-name="threequarters" unicode="&#xbe;" horiz-adv-x="1759" 
d="M565 698q-70 -118 -217 -118q-82 0 -132 44.5t-62 120.5q-6 28 -2 82q3 21 22 21h25q21 0 18 -21q-4 -40 -4 -59q3 -57 41.5 -92t99.5 -35q100 0 152 82q32 57 41 127q12 86 -12 141q-28 82 -127 82q-21 0 -31 -4q-17 -3 -25 8l-8 13q-12 16 4 28l240 264q3 3 1.5 7
t-5.5 4h-340q-8 0 -13 5.5t-4 14.5l2 17q3 20 23 20h410q8 0 12.5 -5.5t3.5 -14.5l-2 -23q-3 -16 -12 -25l-222 -249q-3 -3 -1.5 -7t5.5 -4q112 -9 154 -106q24 -67 12 -166q-9 -90 -47 -152zM1421 1419q15 15 27 15h27q24 0 10 -25l-1045 -1395q-10 -14 -24 -14h-27
q-12 0 -14 7t6 18zM1661 301q8 0 12.5 -5.5t3.5 -14.5l-2 -21q-3 -20 -22 -20h-39q-8 0 -8 -9l-27 -211q0 -9 -7 -14.5t-16 -5.5h-24q-19 0 -19 20l27 211q0 9 -6 9h-342q-18 0 -18 20l4 21q0 11 8 24l313 541q6 14 23 14h24q10 0 13 -7t-3 -17l-303 -525q-2 -3 0.5 -6.5
t6.5 -3.5h280q6 0 10 8l23 197q1 9 7.5 14.5t14.5 5.5h27q18 0 18 -20l-24 -197q-1 -3 1 -5.5t5 -2.5h39z" />
    <glyph glyph-name="questiondown" unicode="&#xbf;" horiz-adv-x="860" 
d="M547 1016q38 0 62 -28t18 -68q-4 -38 -36 -65.5t-69 -27.5t-62.5 27.5t-21.5 65.5q4 39 37 67.5t72 28.5zM524 635q9 0 14.5 -6t4.5 -15l-19 -143q-6 -52 -30 -96t-57 -76t-72 -62t-78.5 -61.5t-73 -66.5t-58.5 -85.5t-32 -111.5q-15 -121 47 -193.5t178 -72.5
q117 0 198.5 73t96.5 191l8 76q3 20 23 20l39 -2q8 0 12.5 -5.5t3.5 -14.5l-8 -74q-19 -150 -125.5 -244t-257.5 -94t-231.5 93.5t-61.5 248.5q10 81 42.5 146.5t74 106t89 79t87.5 68t70 71t36 88.5l17 141q3 21 22 21h41z" />
    <glyph glyph-name="Agrave" unicode="&#xc0;" horiz-adv-x="1148" 
d="M748 1616q4 -10 -1.5 -17.5t-17.5 -7.5h-27q-14 0 -22 15l-102 227q-5 11 -0.5 18t16.5 7h37q19 0 22 -15zM973 0q-18 0 -21 16l-55 283q-2 6 -8 6h-639q-6 0 -8 -6l-123 -283q-6 -16 -25 -16h-39q-22 0 -12 23l614 1394q7 17 25 17h53q6 0 13 -5t8 -12l276 -1394
q3 -23 -18 -23h-41zM276 383q-2 -3 1.5 -6.5t7.5 -3.5h589q4 0 7.5 3.5t1.5 6.5l-183 938q-2 5 -5.5 5t-6.5 -5z" />
    <glyph glyph-name="Aacute" unicode="&#xc1;" horiz-adv-x="1148" 
d="M885 1858q12 0 15 -7t-3 -18l-160 -227q-11 -15 -24 -15h-29q-12 0 -15 7.5t5 17.5l149 227q6 15 25 15h37zM973 0q-18 0 -21 16l-55 283q-2 6 -8 6h-639q-6 0 -8 -6l-123 -283q-6 -16 -25 -16h-39q-22 0 -12 23l614 1394q7 17 25 17h53q6 0 13 -5t8 -12l276 -1394
q3 -23 -18 -23h-41zM276 383q-2 -3 1.5 -6.5t7.5 -3.5h589q4 0 7.5 3.5t1.5 6.5l-183 938q-2 5 -5.5 5t-6.5 -5z" />
    <glyph glyph-name="Acircumflex" unicode="&#xc2;" horiz-adv-x="1148" 
d="M756 1772q-4 9 -13 0l-161 -187q-7 -12 -27 -12h-31q-11 0 -14 7.5t6 16.5l193 222q7 12 26 12h41q20 0 25 -12l139 -222q6 -9 1 -16.5t-17 -7.5h-29q-20 0 -25 12zM973 0q-18 0 -21 16l-55 283q-2 6 -8 6h-639q-6 0 -8 -6l-123 -283q-6 -16 -25 -16h-39q-22 0 -12 23
l614 1394q7 17 25 17h53q6 0 13 -5t8 -12l276 -1394q3 -23 -18 -23h-41zM276 383q-2 -3 1.5 -6.5t7.5 -3.5h589q4 0 7.5 3.5t1.5 6.5l-183 938q-2 5 -5.5 5t-6.5 -5z" />
    <glyph glyph-name="Atilde" unicode="&#xc3;" horiz-adv-x="1148" 
d="M657 1726q-34 0 -58.5 -11.5t-53.5 -45.5q-16 -16 -29 -6l-12 10q-14 11 -2 29q67 90 162 90q8 0 15 -0.5t14.5 -3t12.5 -3.5t12.5 -5t11 -5.5t12 -7t10.5 -7t11.5 -8t10.5 -7.5q57 -45 92 -45q64 0 115 63q13 16 27 6l12 -6q15 -11 4 -28q-34 -52 -79.5 -76.5
t-86.5 -24.5q-52 0 -110 49q-19 16 -30 23t-27 13.5t-34 6.5zM973 0q-18 0 -21 16l-55 283q-2 6 -8 6h-639q-6 0 -8 -6l-123 -283q-6 -16 -25 -16h-39q-22 0 -12 23l614 1394q7 17 25 17h53q6 0 13 -5t8 -12l276 -1394q3 -23 -18 -23h-41zM276 383q-2 -3 1.5 -6.5t7.5 -3.5
h589q4 0 7.5 3.5t1.5 6.5l-183 938q-2 5 -5.5 5t-6.5 -5z" />
    <glyph glyph-name="Adieresis" unicode="&#xc4;" horiz-adv-x="1148" 
d="M582 1661q-32 0 -51.5 21t-16.5 53q5 30 29 50.5t57 20.5q29 0 46.5 -21t12.5 -50q-3 -32 -25 -53t-52 -21zM893 1661q-31 0 -49.5 21t-14.5 53q3 29 27 50t55 21q30 0 48.5 -20.5t15.5 -50.5q-5 -32 -27.5 -53t-54.5 -21zM973 0q-18 0 -21 16l-55 283q-2 6 -8 6h-639
q-6 0 -8 -6l-123 -283q-6 -16 -25 -16h-39q-22 0 -12 23l614 1394q7 17 25 17h53q6 0 13 -5t8 -12l276 -1394q3 -23 -18 -23h-41zM276 383q-2 -3 1.5 -6.5t7.5 -3.5h589q4 0 7.5 3.5t1.5 6.5l-183 938q-2 5 -5.5 5t-6.5 -5z" />
    <glyph glyph-name="Aring" unicode="&#xc5;" horiz-adv-x="1148" 
d="M727 1579q-85 0 -136 59t-40 144q10 85 76 144t149 59t134.5 -59t41.5 -144t-76 -144t-149 -59zM770 1929q-61 0 -109 -42.5t-55 -104.5q-7 -63 30 -105.5t97 -42.5q61 0 109 43t55 105t-30.5 104.5t-96.5 42.5zM973 0q-18 0 -21 16l-55 283q-2 6 -8 6h-639q-6 0 -8 -6
l-123 -283q-6 -16 -25 -16h-39q-22 0 -12 23l614 1394q7 17 25 17h53q6 0 13 -5t8 -12l276 -1394q3 -23 -18 -23h-41zM276 383q-2 -3 1.5 -6.5t7.5 -3.5h589q4 0 7.5 3.5t1.5 6.5l-183 938q-2 5 -5.5 5t-6.5 -5z" />
    <glyph glyph-name="AE" unicode="&#xc6;" horiz-adv-x="1794" 
d="M1790 1382q0 -9 -7 -14.5t-16 -5.5h-694q-8 0 -8 -8l-74 -590q0 -8 8 -8h478q9 0 14 -6t4 -15l-4 -33q-3 -20 -23 -20h-479q-8 0 -8 -8l-74 -594q0 -8 8 -8h695q18 0 18 -21l-4 -31q-3 -20 -22 -20h-762q-20 0 -17 20l33 277q1 3 -1 5.5t-5 2.5h-531q-7 0 -10 -6
l-180 -285q-8 -14 -27 -14h-43q-11 0 -15 7t3 18l895 1394q9 15 27 15h809q20 0 16 -21zM365 383q-3 -10 2 -10h491q8 0 8 8l119 956q0 4 -1.5 5.5t-4 0.5t-4.5 -4z" />
    <glyph glyph-name="Ccedilla" unicode="&#xc7;" horiz-adv-x="1204" 
d="M1139 1012q0 -5 -6 -9t-15 -4l-39 -2q-18 0 -18 13l2 12q20 160 -69 258t-253 98q-167 0 -279 -98t-132 -258l-74 -610q-20 -160 68.5 -259.5t255.5 -99.5q163 0 276 99.5t133 259.5v4q3 18 23 18l37 -2q18 0 18 -8l-2 -10q-23 -193 -160.5 -312.5t-335.5 -119.5h-24
q-13 0 -4 -9q113 -108 71 -237q-14 -42 -42 -69.5t-61 -37.5t-69.5 -12.5t-68.5 6.5q-20 3 -13 25l7 16q9 20 26 17q56 -13 100 4.5t62 72.5q30 98 -74 209q-6 6 -11 12t-7.5 9.5t-1.5 3.5q-21 6 -27 8q-136 37 -205 148t-49 268l74 604q25 194 161 312t337 118
q198 0 306 -117.5t85 -310.5z" />
    <glyph glyph-name="Egrave" unicode="&#xc8;" horiz-adv-x="1222" 
d="M819 1636q4 -10 -0.5 -17t-15.5 -7h-29q-12 0 -22 14l-103 227q-5 11 0 18t17 7h36q20 0 23 -14zM1219 1382q-3 -20 -23 -20h-766q-6 0 -10 -8l-72 -590q0 -8 6 -8h549q19 0 19 -21l-4 -33q-1 -9 -8 -14.5t-15 -5.5h-549q-8 0 -8 -8l-74 -594q0 -8 6 -8h768q20 0 17 -21
l-4 -31q0 -9 -7 -14.5t-16 -5.5h-831q-20 0 -17 20l170 1393q4 21 23 21h831q9 0 14.5 -6t4.5 -15z" />
    <glyph glyph-name="Eacute" unicode="&#xc9;" horiz-adv-x="1222" 
d="M958 1878q11 0 14.5 -7t-3.5 -18l-160 -227q-11 -14 -25 -14h-28q-12 0 -15 7t4 17l150 228q6 14 25 14h38zM1219 1382q-3 -20 -23 -20h-766q-6 0 -10 -8l-72 -590q0 -8 6 -8h549q19 0 19 -21l-4 -33q-1 -9 -8 -14.5t-15 -5.5h-549q-8 0 -8 -8l-74 -594q0 -8 6 -8h768
q20 0 17 -21l-4 -31q0 -9 -7 -14.5t-16 -5.5h-831q-20 0 -17 20l170 1393q4 21 23 21h831q9 0 14.5 -6t4.5 -15z" />
    <glyph glyph-name="Ecircumflex" unicode="&#xca;" horiz-adv-x="1222" 
d="M827 1792q0 2 -1.5 3t-4.5 0.5t-6 -3.5l-162 -186q-8 -13 -26 -13h-31q-10 0 -13 8t5 17l192 221q7 12 27 12h43q17 0 22 -12l140 -221q6 -9 0.5 -17t-17.5 -8h-28q-20 0 -25 13zM1219 1382q-3 -20 -23 -20h-766q-6 0 -10 -8l-72 -590q0 -8 6 -8h549q19 0 19 -21l-4 -33
q-1 -9 -8 -14.5t-15 -5.5h-549q-8 0 -8 -8l-74 -594q0 -8 6 -8h768q20 0 17 -21l-4 -31q0 -9 -7 -14.5t-16 -5.5h-831q-20 0 -17 20l170 1393q4 21 23 21h831q9 0 14.5 -6t4.5 -15z" />
    <glyph glyph-name="Edieresis" unicode="&#xcb;" horiz-adv-x="1222" 
d="M653 1681q-32 0 -50.5 21t-14.5 53q3 30 27 51t57 21q29 0 46.5 -21.5t12.5 -50.5q-3 -32 -25.5 -53t-52.5 -21zM965 1681q-31 0 -49.5 21t-14.5 53q3 29 27 50.5t55 21.5q30 0 48.5 -21t15.5 -51q-5 -32 -27.5 -53t-54.5 -21zM1219 1382q-3 -20 -23 -20h-766
q-6 0 -10 -8l-72 -590q0 -8 6 -8h549q19 0 19 -21l-4 -33q-1 -9 -8 -14.5t-15 -5.5h-549q-8 0 -8 -8l-74 -594q0 -8 6 -8h768q20 0 17 -21l-4 -31q0 -9 -7 -14.5t-16 -5.5h-831q-20 0 -17 20l170 1393q4 21 23 21h831q9 0 14.5 -6t4.5 -15z" />
    <glyph glyph-name="Igrave" unicode="&#xcc;" horiz-adv-x="509" 
d="M434 1636q4 -10 -1 -17t-17 -7h-27q-15 0 -22 14l-103 227q-5 11 0 18t17 7h36q20 0 23 -14zM197 0q-20 0 -17 20l170 1393q4 21 23 21h37q9 0 14 -6t4 -15l-172 -1393q0 -9 -7 -14.5t-16 -5.5h-36z" />
    <glyph glyph-name="Iacute" unicode="&#xcd;" horiz-adv-x="509" 
d="M371 1612q-12 0 -15 7t4 17l150 228q6 14 25 14h36q12 0 15.5 -7t-2.5 -18l-160 -227q-11 -14 -25 -14h-28zM197 0q-20 0 -17 20l170 1393q4 21 23 21h37q9 0 14 -6t4 -15l-172 -1393q0 -9 -7 -14.5t-16 -5.5h-36z" />
    <glyph glyph-name="Icircumflex" unicode="&#xce;" horiz-adv-x="509" 
d="M211 1593q-11 0 -14 8t6 17l192 221q7 12 27 12h41q19 0 24 -12l140 -221q6 -9 0.5 -17t-17.5 -8h-28q-20 0 -25 13l-115 186q-4 8 -12 0l-162 -186q-8 -13 -26 -13h-31zM197 0q-20 0 -17 20l170 1393q4 21 23 21h37q9 0 14 -6t4 -15l-172 -1393q0 -9 -7 -14.5t-16 -5.5
h-36z" />
    <glyph glyph-name="Idieresis" unicode="&#xcf;" horiz-adv-x="509" 
d="M268 1681q-32 0 -51 21t-16 53q5 30 29 51t57 21q29 0 46.5 -21.5t12.5 -50.5q-3 -32 -25.5 -53t-52.5 -21zM580 1681q-31 0 -49.5 21t-14.5 53q3 29 27 50.5t55 21.5q30 0 48.5 -21t15.5 -51q-5 -32 -27.5 -53t-54.5 -21zM197 0q-20 0 -17 20l170 1393q4 21 23 21h37
q9 0 14 -6t4 -15l-172 -1393q0 -9 -7 -14.5t-16 -5.5h-36z" />
    <glyph glyph-name="Eth" unicode="&#xd0;" horiz-adv-x="1370" 
d="M971 1434q184 0 278 -101.5t72 -277.5l-82 -676q-22 -176 -141 -277.5t-303 -101.5h-455q-18 0 -18 20l86 689q0 8 -9 8h-114q-20 0 -17 20l2 25q3 20 23 20h115q6 0 10 9l76 622q4 21 22 21h455zM1161 383l82 666q19 146 -55 229.5t-221 83.5h-394q-10 0 -10 -8
l-69 -563q0 -9 8 -9h268q19 0 16 -20l-2 -25q-3 -20 -22 -20h-268q-7 0 -11 -8l-75 -629q0 -8 6 -8h393q147 0 242 83.5t112 227.5z" />
    <glyph glyph-name="Ntilde" unicode="&#xd1;" horiz-adv-x="1351" 
d="M967 1655q-24 0 -46.5 8.5t-34.5 16.5t-32 24q-17 14 -22.5 18t-18.5 12t-24 10.5t-25 2.5q-34 0 -58 -11t-53 -46q-16 -16 -28 -7l-15 11q-11 11 -2 28q70 90 162 90q23 0 45.5 -8.5t32.5 -15t35 -23.5q57 -45 92 -45q64 0 115 64q10 16 26 6l10 -6q19 -11 -2 -41
q-35 -46 -77.5 -67t-79.5 -21zM197 0q-20 0 -17 20l170 1393q4 21 23 21h39q14 0 22 -15l596 -1249q1 -4 3 -5t4 1t3 6l152 1241q4 21 22 21h39q9 0 14 -6t3 -15l-170 -1393q-3 -20 -23 -20h-43q-13 0 -20 14l-594 1252q-3 6 -6.5 5t-3.5 -7l-154 -1244q0 -9 -7 -14.5
t-16 -5.5h-36z" />
    <glyph glyph-name="Ograve" unicode="&#xd2;" horiz-adv-x="1234" 
d="M793 1632q4 -10 -1 -17t-16 -7h-28q-12 0 -23 14l-102 227q-5 11 -0.5 18t16.5 7h39q17 0 20 -14zM573 -16q-202 0 -310 126t-83 330l70 551q25 206 163.5 332.5t340.5 126.5q204 0 313 -126.5t84 -332.5l-68 -551q-25 -204 -165.5 -330t-344.5 -126zM584 55
q168 0 284 105t138 276l67 557q22 173 -68.5 279t-259.5 106q-167 0 -282 -106t-137 -279l-68 -557q-22 -171 68 -276t258 -105z" />
    <glyph glyph-name="Oacute" unicode="&#xd3;" horiz-adv-x="1234" 
d="M729 1608q-11 0 -14 7t4 17l149 228q6 14 25 14h39q12 0 15 -7t-5 -18l-160 -227q-11 -14 -24 -14h-29zM573 -16q-202 0 -310 126t-83 330l70 551q25 206 163.5 332.5t340.5 126.5q204 0 313 -126.5t84 -332.5l-68 -551q-25 -204 -165.5 -330t-344.5 -126zM584 55
q168 0 284 105t138 276l67 557q22 173 -68.5 279t-259.5 106q-167 0 -282 -106t-137 -279l-68 -557q-22 -171 68 -276t258 -105z" />
    <glyph glyph-name="Ocircumflex" unicode="&#xd4;" horiz-adv-x="1234" 
d="M571 1589q-12 0 -15 8t5 17l193 221q10 12 26 12h43q18 0 25 -12l137 -221q6 -9 1.5 -17t-15.5 -8h-31q-20 0 -25 13l-114 186q0 2 -1.5 3t-4 0.5t-4.5 -3.5l-162 -186q-10 -13 -29 -13h-29zM573 -16q-202 0 -310 126t-83 330l70 551q25 206 163.5 332.5t340.5 126.5
q204 0 313 -126.5t84 -332.5l-68 -551q-25 -204 -165.5 -330t-344.5 -126zM584 55q168 0 284 105t138 276l67 557q22 173 -68.5 279t-259.5 106q-167 0 -282 -106t-137 -279l-68 -557q-22 -171 68 -276t258 -105z" />
    <glyph glyph-name="Otilde" unicode="&#xd5;" horiz-adv-x="1234" 
d="M903 1651q-52 0 -110 49q-21 17 -30 23.5t-26 13t-35 6.5q-33 0 -57.5 -11t-54.5 -46q-14 -17 -29 -7l-12 11q-12 12 -2 28q70 90 162 90q8 0 15 -0.5t14.5 -3t12.5 -3.5t12.5 -5t11 -5.5t12 -7t10.5 -7t11.5 -8t10.5 -7.5q22 -16 31.5 -23t27.5 -14.5t33 -7.5
q64 0 115 64q13 16 27 6l12 -6q16 -12 -4 -41q-34 -46 -76.5 -67t-81.5 -21zM573 -16q-202 0 -310 126t-83 330l70 551q25 206 163.5 332.5t340.5 126.5q204 0 313 -126.5t84 -332.5l-68 -551q-25 -204 -165.5 -330t-344.5 -126zM584 55q168 0 284 105t138 276l67 557
q22 173 -68.5 279t-259.5 106q-167 0 -282 -106t-137 -279l-68 -557q-22 -171 68 -276t258 -105z" />
    <glyph glyph-name="Odieresis" unicode="&#xd6;" horiz-adv-x="1234" 
d="M627 1677q-32 0 -51 21t-15 53q3 29 27.5 50.5t56.5 21.5q29 0 47 -21t15 -51q-5 -32 -27 -53t-53 -21zM938 1677q-31 0 -49.5 21t-14.5 53q3 29 27 50.5t55 21.5q32 0 49.5 -21t14.5 -51q-5 -32 -27.5 -53t-54.5 -21zM573 -16q-202 0 -310 126t-83 330l70 551
q25 206 163.5 332.5t340.5 126.5q204 0 313 -126.5t84 -332.5l-68 -551q-25 -204 -165.5 -330t-344.5 -126zM584 55q168 0 284 105t138 276l67 557q22 173 -68.5 279t-259.5 106q-167 0 -282 -106t-137 -279l-68 -557q-22 -171 68 -276t258 -105z" />
    <glyph glyph-name="multiply" unicode="&#xd7;" horiz-adv-x="817" 
d="M795 950q10 -14 -4 -28l-283 -258q-6 -6 0 -13l211 -252q10 -14 -4 -28l-23 -23q-14 -14 -28 0l-213 252q-3 6 -13 0l-278 -256q-16 -13 -29 0l-16 21q-14 14 4 28l278 256q7 7 2 13l-223 266q-13 13 2 28l23 21q17 14 28 0l226 -264q6 -6 12 0l283 258q6 6 13.5 6
t12.5 -6z" />
    <glyph glyph-name="Oslash" unicode="&#xd8;" horiz-adv-x="1239" 
d="M1028 1374q-3 -8 2 -10q73 -61 105.5 -157t19.5 -216l-68 -551q-26 -205 -166 -330.5t-343 -125.5q-158 0 -267 82q-5 4 -12 -3l-63 -114q-6 -17 -23 -17h-31q-11 0 -14.5 7t2.5 18l88 156q4 7 -2 10q-93 126 -72 317l68 551q26 206 165 332.5t341 126.5q124 0 207 -45
q10 -3 12 4l51 92q8 17 25 17h28q11 0 16 -7t-1 -18zM262 436q-15 -138 37 -229q7 -10 10 0l621 1118q3 9 -2 12q-74 41 -178 41q-167 0 -282.5 -106t-137.5 -279zM1010 436l67 557q24 189 -84 297q-8 6 -12 -2l-633 -1138q-3 -9 2 -11q90 -84 238 -84q168 0 284 105
t138 276z" />
    <glyph glyph-name="Ugrave" unicode="&#xd9;" horiz-adv-x="1302" 
d="M829 1640q4 -10 -0.5 -17t-15.5 -7h-29q-12 0 -22 14l-103 228q-5 11 0 17.5t17 6.5h39q17 0 20 -14zM610 -16q-203 0 -312.5 122.5t-84.5 321.5l121 985q4 21 22 21h39q8 0 13 -6t4 -15l-121 -991q-20 -165 69.5 -266t257.5 -101q170 0 285 101t135 266l123 991
q3 21 23 21h37q18 0 18 -21l-121 -985q-25 -200 -164.5 -322t-343.5 -122z" />
    <glyph glyph-name="Uacute" unicode="&#xda;" horiz-adv-x="1302" 
d="M766 1616q-11 0 -14 7t4 17l149 228q6 14 25 14h39q11 0 14 -7t-4 -17l-160 -228q-11 -14 -24 -14h-29zM610 -16q-203 0 -312.5 122.5t-84.5 321.5l121 985q4 21 22 21h39q8 0 13 -6t4 -15l-121 -991q-20 -165 69.5 -266t257.5 -101q170 0 285 101t135 266l123 991
q3 21 23 21h37q18 0 18 -21l-121 -985q-25 -200 -164.5 -322t-343.5 -122z" />
    <glyph glyph-name="Ucircumflex" unicode="&#xdb;" horiz-adv-x="1302" 
d="M608 1597q-12 0 -15 8t5 17l193 221q10 12 26 12h43q18 0 25 -12l137 -221q6 -9 1.5 -17t-15.5 -8h-31q-20 0 -25 13l-114 186q0 2 -2 3t-4.5 0.5t-4.5 -3.5l-163 -186q-8 -13 -27 -13h-29zM610 -16q-203 0 -312.5 122.5t-84.5 321.5l121 985q4 21 22 21h39q8 0 13 -6
t4 -15l-121 -991q-20 -165 69.5 -266t257.5 -101q170 0 285 101t135 266l123 991q3 21 23 21h37q18 0 18 -21l-121 -985q-25 -200 -164.5 -322t-343.5 -122z" />
    <glyph glyph-name="Udieresis" unicode="&#xdc;" horiz-adv-x="1302" 
d="M664 1686q-33 0 -51.5 20.5t-14.5 52.5q3 29 27.5 50.5t56.5 21.5q29 0 46.5 -21t14.5 -51q-5 -32 -26.5 -52.5t-52.5 -20.5zM975 1686q-31 0 -49.5 20.5t-14.5 52.5q3 29 27 50.5t55 21.5q32 0 49.5 -21t14.5 -51q-5 -32 -27.5 -52.5t-54.5 -20.5zM610 -16
q-203 0 -312.5 122.5t-84.5 321.5l121 985q4 21 22 21h39q8 0 13 -6t4 -15l-121 -991q-20 -165 69.5 -266t257.5 -101q170 0 285 101t135 266l123 991q3 21 23 21h37q18 0 18 -21l-121 -985q-25 -200 -164.5 -322t-343.5 -122z" />
    <glyph glyph-name="Yacute" unicode="&#xdd;" horiz-adv-x="1081" 
d="M651 1589q-11 0 -14 7.5t4 17.5l150 227q6 14 24 14h39q12 0 15 -6.5t-5 -17.5l-159 -227q-11 -15 -25 -15h-29zM483 0q-18 0 -18 20l80 648v10l-326 731q-5 11 0 18t17 7h36q16 0 23 -15l293 -657q2 -3 6 -3t6 3l455 657q11 15 24 15h39q11 0 14 -7t-4 -18l-505 -731
q-2 -2 -2 -10l-80 -648q-3 -20 -23 -20h-35z" />
    <glyph glyph-name="Thorn" unicode="&#xde;" horiz-adv-x="1114" 
d="M762 1096q164 0 251.5 -105t67.5 -276q-22 -171 -135 -274t-278 -103h-379q-10 0 -10 -8l-37 -310q-3 -20 -23 -20h-39q-19 0 -16 20l170 1393q4 21 22 21h39q8 0 13 -6t4 -15l-37 -309q-1 -3 1 -5.5t5 -2.5h381zM674 408q130 0 221.5 84t108.5 221q17 141 -53 226
t-201 85h-377q-7 0 -11 -8l-73 -600q0 -8 8 -8h377z" />
    <glyph glyph-name="germandbls" unicode="&#xdf;" horiz-adv-x="1153" 
d="M166 0q-9 0 -14.5 5.5t-4.5 14.5l129 1049q21 176 143.5 279.5t295.5 103.5q197 0 292 -96.5t78 -272.5q-13 -119 -73 -202t-156 -117q-3 -1 -4 -2.5t0 -3t4 -2.5q89 -39 131 -135t25 -232q-24 -184 -150 -286.5t-348 -102.5h-164q-18 0 -18 20l4 29q4 21 22 21h170
q184 0 285.5 83.5t120.5 239.5q20 160 -48.5 244.5t-226.5 87.5h-159q-20 0 -17 20l2 27q3 21 23 21h164q154 0 238 75t98 215q12 144 -62 221.5t-237 77.5q-137 0 -237 -83t-118 -226l-129 -1053q-3 -20 -22 -20h-37z" />
    <glyph glyph-name="agrave" unicode="&#xe0;" 
d="M655 1210q4 -10 -0.5 -17t-15.5 -7h-29q-12 0 -22 14l-103 227q-5 11 0 18t17 7h39q17 0 20 -14zM885 1008q3 20 22 20h37q19 0 19 -20l-121 -988q-1 -9 -8 -14.5t-15 -5.5h-39q-19 0 -16 20l14 115q0 4 -1.5 5.5t-4 0.5t-4.5 -4q-52 -72 -129 -112.5t-168 -40.5
q-134 0 -218.5 74t-98.5 196q-9 74 14 258q24 193 47 260q45 124 147 198t238 74q92 0 158.5 -40.5t101.5 -112.5q2 -3 4.5 -4t4 0.5t1.5 5.5zM776 274q15 35 23.5 79t21.5 159q15 122 17 166.5t-4 77.5q-6 95 -68 156t-166 61q-106 0 -189 -60.5t-116 -154.5
q-16 -39 -25.5 -84t-23.5 -158q-14 -115 -16 -164.5t3 -77.5q6 -96 75 -157.5t177 -61.5q107 0 183.5 62t107.5 157z" />
    <glyph glyph-name="aacute" unicode="&#xe1;" 
d="M795 1452q12 0 15 -7t-5 -18l-160 -227q-11 -14 -24 -14h-29q-11 0 -14 7t4 17l149 228q6 14 25 14h39zM885 1008q3 20 22 20h37q19 0 19 -20l-121 -988q-1 -9 -8 -14.5t-15 -5.5h-39q-19 0 -16 20l14 115q0 4 -1.5 5.5t-4 0.5t-4.5 -4q-52 -72 -129 -112.5t-168 -40.5
q-134 0 -218.5 74t-98.5 196q-9 74 14 258q24 193 47 260q45 124 147 198t238 74q92 0 158.5 -40.5t101.5 -112.5q2 -3 4.5 -4t4 0.5t1.5 5.5zM776 274q15 35 23.5 79t21.5 159q15 122 17 166.5t-4 77.5q-6 95 -68 156t-166 61q-106 0 -189 -60.5t-116 -154.5
q-16 -39 -25.5 -84t-23.5 -158q-14 -115 -16 -164.5t3 -77.5q6 -96 75 -157.5t177 -61.5q107 0 183.5 62t107.5 157z" />
    <glyph glyph-name="acircumflex" unicode="&#xe2;" 
d="M664 1366q0 2 -2 3t-4.5 0.5t-4.5 -3.5l-161 -186q-10 -13 -29 -13h-29q-12 0 -15 8t5 17l192 221q10 12 27 12h43q18 0 25 -12l137 -221q6 -9 1.5 -17t-15.5 -8h-31q-20 0 -25 13zM885 1008q3 20 22 20h37q19 0 19 -20l-121 -988q-1 -9 -8 -14.5t-15 -5.5h-39
q-19 0 -16 20l14 115q0 4 -1.5 5.5t-4 0.5t-4.5 -4q-52 -72 -129 -112.5t-168 -40.5q-134 0 -218.5 74t-98.5 196q-9 74 14 258q24 193 47 260q45 124 147 198t238 74q92 0 158.5 -40.5t101.5 -112.5q2 -3 4.5 -4t4 0.5t1.5 5.5zM776 274q15 35 23.5 79t21.5 159
q15 122 17 166.5t-4 77.5q-6 95 -68 156t-166 61q-106 0 -189 -60.5t-116 -154.5q-16 -39 -25.5 -84t-23.5 -158q-14 -115 -16 -164.5t3 -77.5q6 -96 75 -157.5t177 -61.5q107 0 183.5 62t107.5 157z" />
    <glyph glyph-name="atilde" unicode="&#xe3;" 
d="M565 1321q-33 0 -57.5 -11t-54.5 -46q-14 -17 -29 -7l-12 11q-12 12 -2 28q70 90 161 90q22 0 44.5 -8.5t32 -14.5t34.5 -24q22 -16 31.5 -23t27.5 -14.5t33 -7.5q64 0 115 64q13 16 26 6l13 -6q17 -13 6 -29q-35 -52 -81 -76t-87 -24q-53 0 -111 49q-17 14 -22.5 18
t-18.5 12t-24 10.5t-25 2.5zM885 1008q3 20 22 20h37q19 0 19 -20l-121 -988q-1 -9 -8 -14.5t-15 -5.5h-39q-19 0 -16 20l14 115q0 4 -1.5 5.5t-4 0.5t-4.5 -4q-52 -72 -129 -112.5t-168 -40.5q-134 0 -218.5 74t-98.5 196q-9 74 14 258q24 193 47 260q45 124 147 198
t238 74q92 0 158.5 -40.5t101.5 -112.5q2 -3 4.5 -4t4 0.5t1.5 5.5zM776 274q15 35 23.5 79t21.5 159q15 122 17 166.5t-4 77.5q-6 95 -68 156t-166 61q-106 0 -189 -60.5t-116 -154.5q-16 -39 -25.5 -84t-23.5 -158q-14 -115 -16 -164.5t3 -77.5q6 -96 75 -157.5t177 -61.5
q107 0 183.5 62t107.5 157z" />
    <glyph glyph-name="adieresis" unicode="&#xe4;" 
d="M489 1255q-32 0 -50.5 21t-14.5 53q3 29 27.5 50.5t56.5 21.5q29 0 46.5 -21t14.5 -51q-5 -32 -27 -53t-53 -21zM801 1255q-31 0 -49.5 21t-14.5 53q3 29 27 50.5t55 21.5q32 0 49.5 -21t14.5 -51q-5 -32 -27.5 -53t-54.5 -21zM885 1008q3 20 22 20h37q19 0 19 -20
l-121 -988q-1 -9 -8 -14.5t-15 -5.5h-39q-19 0 -16 20l14 115q0 4 -1.5 5.5t-4 0.5t-4.5 -4q-52 -72 -129 -112.5t-168 -40.5q-134 0 -218.5 74t-98.5 196q-9 74 14 258q24 193 47 260q45 124 147 198t238 74q92 0 158.5 -40.5t101.5 -112.5q2 -3 4.5 -4t4 0.5t1.5 5.5z
M776 274q15 35 23.5 79t21.5 159q15 122 17 166.5t-4 77.5q-6 95 -68 156t-166 61q-106 0 -189 -60.5t-116 -154.5q-16 -39 -25.5 -84t-23.5 -158q-14 -115 -16 -164.5t3 -77.5q6 -96 75 -157.5t177 -61.5q107 0 183.5 62t107.5 157z" />
    <glyph glyph-name="aring" unicode="&#xe5;" 
d="M635 1174q-84 0 -135 59t-41 143q10 85 76 144t149 59q85 0 136 -59t40 -144q-10 -85 -76 -143.5t-149 -58.5zM678 1524q-61 0 -109 -43t-55 -105q-7 -63 30 -105t97 -42q61 0 109 42.5t55 104.5q7 63 -30 105.5t-97 42.5zM885 1008q3 20 22 20h37q19 0 19 -20l-121 -988
q-1 -9 -8 -14.5t-15 -5.5h-39q-19 0 -16 20l14 115q0 4 -1.5 5.5t-4 0.5t-4.5 -4q-52 -72 -129 -112.5t-168 -40.5q-134 0 -218.5 74t-98.5 196q-9 74 14 258q24 193 47 260q45 124 147 198t238 74q92 0 158.5 -40.5t101.5 -112.5q2 -3 4.5 -4t4 0.5t1.5 5.5zM776 274
q15 35 23.5 79t21.5 159q15 122 17 166.5t-4 77.5q-6 95 -68 156t-166 61q-106 0 -189 -60.5t-116 -154.5q-16 -39 -25.5 -84t-23.5 -158q-14 -115 -16 -164.5t3 -77.5q6 -96 75 -157.5t177 -61.5q107 0 183.5 62t107.5 157z" />
    <glyph glyph-name="ae" unicode="&#xe6;" horiz-adv-x="1648" 
d="M399 -16q-66 0 -121 15t-99.5 46.5t-65.5 88t-11 132.5q19 147 136.5 228t310.5 81h244q8 0 8 9l14 116q15 124 -42.5 198.5t-197.5 74.5q-105 0 -181.5 -46t-102.5 -124q-9 -20 -25 -17l-37 7q-23 4 -14 22q34 103 136 166t239 63q123 0 195.5 -51.5t93.5 -142.5
q3 -10 10 0q47 87 137.5 140.5t200.5 53.5q133 0 220 -75t99 -197q5 -49 2.5 -84.5t-18.5 -161.5q0 -10 -7 -16t-16 -6h-628q-9 0 -9 -8l-24 -191q-11 -118 65 -182t201 -64q101 0 179 48.5t120 132.5q6 18 25 12l26 -8q20 -7 11 -27q-49 -104 -149.5 -168.5t-227.5 -64.5
q-119 0 -197.5 48.5t-101.5 139.5q-2 5 -4.5 5.5t-4.5 -3.5q-48 -90 -155.5 -140t-233.5 -50zM881 584q-3 -9 6 -9h567q8 0 8 9q11 116 8 155q-5 103 -73 168.5t-180 65.5t-195 -65t-115 -169q-13 -44 -26 -155zM412 53q83 0 157.5 25t131 83.5t65.5 141.5l25 193q0 8 -9 8
h-239q-152 0 -251 -59.5t-112 -174.5q-13 -106 52.5 -161.5t179.5 -55.5z" />
    <glyph glyph-name="ccedilla" unicode="&#xe7;" horiz-adv-x="1017" 
d="M819 272l4 11q6 20 27 16l33 -6q19 -4 14 -23q-5 -21 -10 -32q-36 -106 -139.5 -177t-235.5 -77q-11 0 -4 -11q117 -106 74 -235q-15 -42 -43 -69.5t-61 -37.5t-69.5 -12.5t-68.5 6.5q-18 3 -14 25l6 16q8 20 28 17q55 -13 99.5 4.5t60.5 72.5q36 108 -90 224q0 4 -8 4
q-108 18 -175.5 90t-82.5 180q-10 88 8 258q17 148 55 256q45 123 151 197.5t245 74.5q137 0 227 -72t104 -181q4 -18 4 -54q0 -19 -20 -22l-37 -4q-18 -3 -18 18l-2 29q-8 91 -81 153t-188 62q-116 0 -200.5 -64t-116.5 -168q-29 -95 -45 -227q-16 -130 -12 -225
q9 -106 77.5 -170t184.5 -64t205 62.5t114 154.5z" />
    <glyph glyph-name="egrave" unicode="&#xe8;" horiz-adv-x="1048" 
d="M651 1227q4 -10 -0.5 -17.5t-15.5 -7.5h-29q-11 0 -22 15l-103 227q-5 11 0 17.5t17 6.5h39q17 0 20 -14zM500 55q103 0 183 49.5t124 133.5q9 18 27 12l24 -8q19 -6 10 -27q-53 -104 -153.5 -167.5t-227.5 -63.5q-136 0 -220 71t-105 193q-11 74 10 268q22 180 47 252
q45 125 150.5 200.5t244.5 75.5q148 0 235.5 -80t96.5 -216q4 -60 -16 -232q-3 -22 -23 -22h-651q-7 0 -10 -9q-18 -169 -15 -196q8 -106 79 -170t190 -64zM606 973q-117 0 -201 -63.5t-116 -166.5q-17 -56 -33 -176q0 -8 8 -8h586q8 0 8 8q15 131 12 172
q-9 105 -78.5 169.5t-185.5 64.5z" />
    <glyph glyph-name="eacute" unicode="&#xe9;" horiz-adv-x="1048" 
d="M791 1468q12 0 15 -7t-5 -17l-160 -227q-11 -15 -25 -15h-28q-11 0 -14 7t4 18l149 227q6 14 25 14h39zM500 55q103 0 183 49.5t124 133.5q9 18 27 12l24 -8q19 -6 10 -27q-53 -104 -153.5 -167.5t-227.5 -63.5q-136 0 -220 71t-105 193q-11 74 10 268q22 180 47 252
q45 125 150.5 200.5t244.5 75.5q148 0 235.5 -80t96.5 -216q4 -60 -16 -232q-3 -22 -23 -22h-651q-7 0 -10 -9q-18 -169 -15 -196q8 -106 79 -170t190 -64zM606 973q-117 0 -201 -63.5t-116 -166.5q-17 -56 -33 -176q0 -8 8 -8h586q8 0 8 8q15 131 12 172
q-9 105 -78.5 169.5t-185.5 64.5z" />
    <glyph glyph-name="ecircumflex" unicode="&#xea;" horiz-adv-x="1048" 
d="M659 1382q0 2 -1.5 3t-4 0.5t-4.5 -3.5l-162 -186q-10 -12 -28 -12h-29q-12 0 -15 7.5t5 16.5l192 222q10 12 27 12h43q18 0 25 -12l137 -222q6 -9 1 -16.5t-16 -7.5h-30q-18 0 -25 12zM500 55q103 0 183 49.5t124 133.5q9 18 27 12l24 -8q19 -6 10 -27
q-53 -104 -153.5 -167.5t-227.5 -63.5q-136 0 -220 71t-105 193q-11 74 10 268q22 180 47 252q45 125 150.5 200.5t244.5 75.5q148 0 235.5 -80t96.5 -216q4 -60 -16 -232q-3 -22 -23 -22h-651q-7 0 -10 -9q-18 -169 -15 -196q8 -106 79 -170t190 -64zM606 973
q-117 0 -201 -63.5t-116 -166.5q-17 -56 -33 -176q0 -8 8 -8h586q8 0 8 8q15 131 12 172q-9 105 -78.5 169.5t-185.5 64.5z" />
    <glyph glyph-name="edieresis" unicode="&#xeb;" horiz-adv-x="1048" 
d="M485 1272q-32 0 -50.5 21t-14.5 53q3 29 27.5 50t56.5 21q29 0 46.5 -20.5t14.5 -50.5q-5 -32 -27 -53t-53 -21zM799 1272q-32 0 -50.5 21t-15.5 53q3 29 27 50t55 21q32 0 49.5 -20.5t14.5 -50.5q-5 -32 -27 -53t-53 -21zM500 55q103 0 183 49.5t124 133.5q9 18 27 12
l24 -8q19 -6 10 -27q-53 -104 -153.5 -167.5t-227.5 -63.5q-136 0 -220 71t-105 193q-11 74 10 268q22 180 47 252q45 125 150.5 200.5t244.5 75.5q148 0 235.5 -80t96.5 -216q4 -60 -16 -232q-3 -22 -23 -22h-651q-7 0 -10 -9q-18 -169 -15 -196q8 -106 79 -170t190 -64z
M606 973q-117 0 -201 -63.5t-116 -166.5q-17 -56 -33 -176q0 -8 8 -8h586q8 0 8 8q15 131 12 172q-9 105 -78.5 169.5t-185.5 64.5z" />
    <glyph glyph-name="igrave" unicode="&#xec;" horiz-adv-x="421" 
d="M334 1229q4 -10 -1 -17.5t-16 -7.5h-28q-12 0 -23 15l-102 227q-10 24 16 24h39q18 0 21 -14zM150 0q-19 0 -19 20l121 988q1 9 7.5 14.5t14.5 5.5h39q20 0 17 -20l-121 -988q-3 -20 -23 -20h-36z" />
    <glyph glyph-name="iacute" unicode="&#xed;" horiz-adv-x="421" 
d="M270 1204q-11 0 -14 7t4 18l150 227q6 14 24 14h39q12 0 15 -7t-5 -17l-159 -227q-11 -15 -25 -15h-29zM150 0q-19 0 -19 20l121 988q1 9 7.5 14.5t14.5 5.5h39q20 0 17 -20l-121 -988q-3 -20 -23 -20h-36z" />
    <glyph glyph-name="icircumflex" unicode="&#xee;" horiz-adv-x="421" 
d="M113 1186q-12 0 -15.5 7.5t4.5 16.5l193 222q10 12 27 12h43q17 0 24 -12l137 -222q6 -9 1.5 -16.5t-15.5 -7.5h-31q-19 0 -24 12l-115 186q0 2 -1.5 3t-4 0.5t-4.5 -3.5l-164 -186q-7 -12 -27 -12h-28zM150 0q-19 0 -19 20l121 988q1 9 7.5 14.5t14.5 5.5h39
q20 0 17 -20l-121 -988q-3 -20 -23 -20h-36z" />
    <glyph glyph-name="idieresis" unicode="&#xef;" horiz-adv-x="585" 
d="M256 1274q-32 0 -51.5 21t-16.5 53q5 30 29 50.5t57 20.5q29 0 47 -21t13 -50q-3 -32 -25.5 -53t-52.5 -21zM567 1274q-31 0 -49 21t-14 53q3 29 27 50t55 21q30 0 48 -20.5t15 -50.5q-5 -32 -27.5 -53t-54.5 -21zM240 0q-8 0 -13 5.5t-4 14.5l121 988q3 20 23 20h36
q9 0 14.5 -5.5t4.5 -14.5l-121 -988q-3 -20 -22 -20h-39z" />
    <glyph glyph-name="eth" unicode="&#xf0;" horiz-adv-x="1032" 
d="M924 719q0 -51 -19 -211q-22 -180 -45 -254q-43 -121 -148.5 -195.5t-240.5 -74.5q-134 0 -219 74t-100 196q-7 75 16 256q9 76 13 106t13 72.5t21 73.5q39 114 133 184.5t217 73.5q82 6 155 -19.5t114 -76.5q2 -4 4 -3.5t2 5.5q-25 139 -127 280q-4 8 -11 4l-172 -57
q-18 -6 -24 14v17q-5 18 14 24l142 45q4 1 5.5 5.5t-1.5 7.5q-57 67 -136 143q-9 9 -4 17t17 8h47q11 0 22 -11q97 -92 133 -135q5 -5 11 -2l145 47q19 6 25 -14l2 -16q3 -18 -17 -25l-114 -37q-4 -2 -7 -4.5t-2 -3.5q154 -214 136 -514zM791 283q12 38 34 223q3 29 9 75
t7.5 61.5t4 49t-1.5 37.5q-6 103 -74 167.5t-180 64.5q-110 0 -192 -64t-115 -168q-15 -43 -37 -223q-22 -168 -19 -223q6 -105 73 -168.5t179 -63.5t195.5 64t116.5 168z" />
    <glyph glyph-name="ntilde" unicode="&#xf1;" horiz-adv-x="1064" 
d="M567 1321q-33 0 -57.5 -11t-54.5 -46q-14 -17 -29 -7l-12 11q-12 12 -2 28q70 90 161 90q22 0 44.5 -8.5t32 -14.5t34.5 -24q22 -16 31.5 -23t27.5 -14.5t33 -7.5q64 0 115 64q13 16 27 6l12 -6q17 -13 4 -29q-34 -52 -79.5 -76t-86.5 -24q-53 0 -111 49q-17 14 -22.5 18
t-18.5 12t-24 10.5t-25 2.5zM649 1042q149 0 230.5 -95.5t62.5 -250.5l-84 -676q0 -9 -6.5 -14.5t-15.5 -5.5h-37q-19 0 -19 20l82 662q15 127 -50.5 208t-184.5 81q-130 0 -218.5 -79t-103.5 -206l-82 -666q-3 -20 -22 -20h-37q-9 0 -14.5 5.5t-4.5 14.5l121 988
q3 20 23 20h39q8 0 12.5 -5.5t3.5 -14.5l-14 -111q0 -6 2.5 -7.5t5.5 3.5q109 149 311 149z" />
    <glyph glyph-name="ograve" unicode="&#xf2;" 
d="M655 1227q4 -10 -0.5 -17.5t-15.5 -7.5h-29q-11 0 -22 15l-103 227q-5 11 0 17.5t17 6.5h39q17 0 20 -14zM489 -16q-140 0 -226 74.5t-101 199.5q-11 72 10 258q22 177 49 256q46 123 152.5 197.5t244.5 74.5q139 0 228.5 -75t101.5 -197q8 -65 -14 -256
q-23 -189 -47 -258q-46 -124 -153 -199t-245 -75zM498 55q115 0 200.5 64.5t118.5 169.5q18 53 39 225q21 192 18 225q-8 105 -79 169.5t-187 64.5q-114 0 -199 -64.5t-120 -169.5q-20 -63 -39 -225q-21 -184 -17 -225q9 -106 79 -170t186 -64z" />
    <glyph glyph-name="oacute" unicode="&#xf3;" 
d="M592 1202q-11 0 -14 7t4 18l149 227q6 14 25 14h39q12 0 15 -7t-5 -17l-160 -227q-11 -15 -24 -15h-29zM489 -16q-140 0 -226 74.5t-101 199.5q-11 72 10 258q22 177 49 256q46 123 152.5 197.5t244.5 74.5q139 0 228.5 -75t101.5 -197q8 -65 -14 -256q-23 -189 -47 -258
q-46 -124 -153 -199t-245 -75zM498 55q115 0 200.5 64.5t118.5 169.5q18 53 39 225q21 192 18 225q-8 105 -79 169.5t-187 64.5q-114 0 -199 -64.5t-120 -169.5q-20 -63 -39 -225q-21 -184 -17 -225q9 -106 79 -170t186 -64z" />
    <glyph glyph-name="ocircumflex" unicode="&#xf4;" 
d="M434 1184q-12 0 -15 7.5t5 16.5l192 222q10 12 27 12h43q18 0 25 -12l137 -222q6 -9 1.5 -16.5t-15.5 -7.5h-31q-20 0 -25 12l-114 186q0 2 -2 3t-4.5 0.5t-4.5 -3.5l-161 -186q-10 -12 -29 -12h-29zM489 -16q-140 0 -226 74.5t-101 199.5q-11 72 10 258q22 177 49 256
q46 123 152.5 197.5t244.5 74.5q139 0 228.5 -75t101.5 -197q8 -65 -14 -256q-23 -189 -47 -258q-46 -124 -153 -199t-245 -75zM498 55q115 0 200.5 64.5t118.5 169.5q18 53 39 225q21 192 18 225q-8 105 -79 169.5t-187 64.5q-114 0 -199 -64.5t-120 -169.5
q-20 -63 -39 -225q-21 -184 -17 -225q9 -106 79 -170t186 -64z" />
    <glyph glyph-name="otilde" unicode="&#xf5;" 
d="M766 1245q-53 0 -111 49q-17 14 -22.5 18t-18.5 12t-24 10.5t-25 2.5q-33 0 -57.5 -11t-54.5 -46q-13 -17 -29 -6l-12 10q-13 13 -2 29q70 90 161 90q22 0 44.5 -8.5t32 -14.5t34.5 -24q22 -16 31.5 -23t27.5 -14.5t33 -7.5q64 0 115 63q13 16 26 6l13 -6q16 -12 -4 -41
q-34 -46 -76.5 -67t-81.5 -21zM489 -16q-140 0 -226 74.5t-101 199.5q-11 72 10 258q22 177 49 256q46 123 152.5 197.5t244.5 74.5q139 0 228.5 -75t101.5 -197q8 -65 -14 -256q-23 -189 -47 -258q-46 -124 -153 -199t-245 -75zM498 55q115 0 200.5 64.5t118.5 169.5
q18 53 39 225q21 192 18 225q-8 105 -79 169.5t-187 64.5q-114 0 -199 -64.5t-120 -169.5q-20 -63 -39 -225q-21 -184 -17 -225q9 -106 79 -170t186 -64z" />
    <glyph glyph-name="odieresis" unicode="&#xf6;" 
d="M489 1272q-32 0 -50.5 21t-14.5 53q3 29 27.5 50t56.5 21q29 0 46.5 -20.5t14.5 -50.5q-5 -32 -27 -53t-53 -21zM801 1272q-31 0 -49.5 21t-14.5 53q3 29 27 50t55 21q32 0 49.5 -20.5t14.5 -50.5q-5 -32 -27.5 -53t-54.5 -21zM489 -16q-140 0 -226 74.5t-101 199.5
q-11 72 10 258q22 177 49 256q46 123 152.5 197.5t244.5 74.5q139 0 228.5 -75t101.5 -197q8 -65 -14 -256q-23 -189 -47 -258q-46 -124 -153 -199t-245 -75zM498 55q115 0 200.5 64.5t118.5 169.5q18 53 39 225q21 192 18 225q-8 105 -79 169.5t-187 64.5
q-114 0 -199 -64.5t-120 -169.5q-20 -63 -39 -225q-21 -184 -17 -225q9 -106 79 -170t186 -64z" />
    <glyph glyph-name="divide" unicode="&#xf7;" horiz-adv-x="1007" 
d="M573 922q-37 0 -59.5 27t-17.5 65q4 38 34 64t66 26q38 0 62 -26t18 -64q-4 -38 -34.5 -65t-68.5 -27zM147 645q-9 0 -14 6t-4 15l4 28q3 21 23 21h792q20 0 17 -21l-2 -28q-3 -21 -23 -21h-793zM498 293q-38 0 -61.5 27t-18.5 65q4 37 34.5 63.5t67.5 26.5t60.5 -26.5
t19.5 -63.5q-4 -38 -34.5 -65t-67.5 -27z" />
    <glyph glyph-name="oslash" unicode="&#xf8;" horiz-adv-x="1067" 
d="M956 772q8 -65 -14 -256q-23 -190 -49 -258q-45 -125 -151.5 -199.5t-245.5 -74.5q-146 0 -236 84q-2 3 -5 2t-5 -4l-78 -103q-5 -8 -13 -10t-16 4l-20 16q-14 12 -4 29l90 119q5 5 2 12q-34 51 -43 125q-8 72 12 258q22 177 49 256q46 123 153 197.5t245 74.5
q127 0 219 -67q4 -4 10 2l66 88q14 18 26 6l25 -16q12 -12 2 -29l-74 -96q-3 -6 0 -12q46 -65 55 -148zM242 289q3 -47 18 -84q3 -9 12 0l525 698q4 7 -2 10q-66 60 -179 60q-114 0 -199 -64.5t-120 -169.5q-20 -63 -39 -225q-22 -164 -16 -225zM825 289q18 53 39 225
q2 20 7 61t6 53t4 44.5t1.5 37t-1.5 29.5q-3 57 -29 111q-8 8 -12 0l-533 -707q-3 -7 0 -10q72 -78 199 -78q114 0 200 64.5t119 169.5z" />
    <glyph glyph-name="ugrave" unicode="&#xf9;" 
d="M655 1210q4 -10 -0.5 -17t-15.5 -7h-29q-12 0 -22 14l-103 227q-5 11 0 18t17 7h39q17 0 20 -14zM885 1008q3 20 22 20h37q19 0 19 -20l-121 -988q-1 -9 -8 -14.5t-15 -5.5h-39q-19 0 -16 20l12 109q1 4 0 5.5t-3.5 0.5t-4.5 -4q-108 -145 -307 -145q-148 0 -230.5 91.5
t-64.5 246.5l84 684q1 9 7.5 14.5t14.5 5.5h39q20 0 17 -20l-82 -666q-15 -130 49.5 -207.5t187.5 -77.5q130 0 217.5 79t102.5 206z" />
    <glyph glyph-name="uacute" unicode="&#xfa;" 
d="M795 1452q12 0 15 -7t-5 -18l-160 -227q-11 -14 -24 -14h-29q-11 0 -14 7t4 17l149 228q6 14 25 14h39zM885 1008q3 20 22 20h37q19 0 19 -20l-121 -988q-1 -9 -8 -14.5t-15 -5.5h-39q-19 0 -16 20l12 109q1 4 0 5.5t-3.5 0.5t-4.5 -4q-108 -145 -307 -145
q-148 0 -230.5 91.5t-64.5 246.5l84 684q1 9 7.5 14.5t14.5 5.5h39q20 0 17 -20l-82 -666q-15 -130 49.5 -207.5t187.5 -77.5q130 0 217.5 79t102.5 206z" />
    <glyph glyph-name="ucircumflex" unicode="&#xfb;" 
d="M664 1366q0 2 -2 3t-4.5 0.5t-4.5 -3.5l-161 -186q-10 -13 -29 -13h-29q-12 0 -15 8t5 17l192 221q10 12 27 12h43q18 0 25 -12l137 -221q6 -9 1.5 -17t-15.5 -8h-31q-20 0 -25 13zM885 1008q3 20 22 20h37q19 0 19 -20l-121 -988q-1 -9 -8 -14.5t-15 -5.5h-39
q-19 0 -16 20l12 109q1 4 0 5.5t-3.5 0.5t-4.5 -4q-108 -145 -307 -145q-148 0 -230.5 91.5t-64.5 246.5l84 684q1 9 7.5 14.5t14.5 5.5h39q20 0 17 -20l-82 -666q-15 -130 49.5 -207.5t187.5 -77.5q130 0 217.5 79t102.5 206z" />
    <glyph glyph-name="udieresis" unicode="&#xfc;" 
d="M489 1255q-32 0 -50.5 21t-14.5 53q3 29 27.5 50.5t56.5 21.5q29 0 46.5 -21t14.5 -51q-5 -32 -27 -53t-53 -21zM801 1255q-31 0 -49.5 21t-14.5 53q3 29 27 50.5t55 21.5q32 0 49.5 -21t14.5 -51q-5 -32 -27.5 -53t-54.5 -21zM885 1008q3 20 22 20h37q19 0 19 -20
l-121 -988q-1 -9 -8 -14.5t-15 -5.5h-39q-19 0 -16 20l12 109q1 4 0 5.5t-3.5 0.5t-4.5 -4q-108 -145 -307 -145q-148 0 -230.5 91.5t-64.5 246.5l84 684q1 9 7.5 14.5t14.5 5.5h39q20 0 17 -20l-82 -666q-15 -130 49.5 -207.5t187.5 -77.5q130 0 217.5 79t102.5 206z" />
    <glyph glyph-name="yacute" unicode="&#xfd;" horiz-adv-x="876" 
d="M500 1188q-12 0 -15 7t4 17l148 228q8 14 27 14h36q12 0 15.5 -7t-2.5 -17l-160 -228q-11 -14 -27 -14h-26zM31 -410q-6 0 -9 6t-2 15l3 31q3 20 18 20h12q47 1 79 10.5t58 27.5t53.5 61.5t51.5 92t65 140.5q5 9 2 12l-221 1000q-3 22 19 22h39q17 0 20 -16l191 -893
q2 -5 6 -5t6 5l401 893q10 16 27 16h37q20 0 14 -22l-518 -1121q-45 -98 -79 -153.5t-73.5 -88.5t-80 -43t-105.5 -10h-14z" />
    <glyph glyph-name="thorn" unicode="&#xfe;" horiz-adv-x="1058" 
d="M950 772q3 -79 0.5 -113.5t-14.5 -146.5q-23 -188 -51 -258q-44 -122 -145.5 -196t-237.5 -74q-88 0 -154 38t-100 105q-1 4 -3 5t-4 -1t-3 -6l-64 -514q0 -9 -6.5 -15t-15.5 -6h-37q-19 0 -19 21l223 1802q0 9 6.5 15t14.5 6h39q19 0 16 -21l-61 -510q-1 -4 0 -6t3.5 -1
t4.5 5q108 143 291 143q136 0 220.5 -74.5t96.5 -197.5zM811 274q10 30 15 48.5t14 67t18 126.5q22 177 10 242q-11 94 -78.5 154.5t-173.5 60.5q-103 0 -179 -61t-107 -156q-19 -45 -23 -74l-43 -340q-2 -36 4 -68q8 -95 69.5 -157t168.5 -62t190.5 61t114.5 158z" />
    <glyph glyph-name="ydieresis" unicode="&#xff;" horiz-adv-x="876" 
d="M397 1257q-33 0 -51.5 20.5t-15.5 53.5q5 30 28.5 51t55.5 21q30 0 47 -21t14 -51q-3 -32 -25.5 -53t-52.5 -21zM709 1257q-31 0 -49.5 21t-14.5 53q3 30 26.5 51t55.5 21q30 0 48 -21t13 -51q-3 -32 -25.5 -53t-53.5 -21zM31 -410q-6 0 -9 6t-2 15l3 31q3 20 18 20h12
q47 1 79 10.5t58 27.5t53.5 61.5t51.5 92t65 140.5q5 9 2 12l-221 1000q-3 22 19 22h39q17 0 20 -16l191 -893q2 -5 6 -5t6 5l401 893q10 16 27 16h37q20 0 14 -22l-518 -1121q-45 -98 -79 -153.5t-73.5 -88.5t-80 -43t-105.5 -10h-14z" />
    <glyph glyph-name="Amacron" unicode="&#x100;" horiz-adv-x="1148" 
d="M977 1702q9 0 14 -6t4 -15l-4 -24q0 -9 -6.5 -15t-15.5 -6h-469q-9 0 -14.5 6t-4.5 15l4 24q0 9 7 15t16 6h469zM973 0q-18 0 -21 16l-55 283q-2 6 -8 6h-639q-6 0 -8 -6l-123 -283q-6 -16 -25 -16h-39q-22 0 -12 23l614 1394q7 17 25 17h53q6 0 13 -5t8 -12l276 -1394
q3 -23 -18 -23h-41zM276 383q-2 -3 1.5 -6.5t7.5 -3.5h589q4 0 7.5 3.5t1.5 6.5l-183 938q-2 5 -5.5 5t-6.5 -5z" />
    <glyph glyph-name="amacron" unicode="&#x101;" 
d="M887 1296q19 0 16 -20l-2 -25q-3 -20 -22 -20h-471q-19 0 -19 20l4 25q3 20 23 20h471zM885 1008q3 20 22 20h37q19 0 19 -20l-121 -988q-1 -9 -8 -14.5t-15 -5.5h-39q-19 0 -16 20l14 115q0 4 -1.5 5.5t-4 0.5t-4.5 -4q-52 -72 -129 -112.5t-168 -40.5q-134 0 -218.5 74
t-98.5 196q-9 74 14 258q24 193 47 260q45 124 147 198t238 74q92 0 158.5 -40.5t101.5 -112.5q2 -3 4.5 -4t4 0.5t1.5 5.5zM776 274q15 35 23.5 79t21.5 159q15 122 17 166.5t-4 77.5q-6 95 -68 156t-166 61q-106 0 -189 -60.5t-116 -154.5q-16 -39 -25.5 -84t-23.5 -158
q-14 -115 -16 -164.5t3 -77.5q6 -96 75 -157.5t177 -61.5q107 0 183.5 62t107.5 157z" />
    <glyph glyph-name="Abreve" unicode="&#x102;" horiz-adv-x="1148" 
d="M723 1556q-79 0 -129.5 53t-48.5 132q0 20 20 20h19q18 0 18 -20q0 -55 37 -92t92 -37q54 0 100.5 37t59.5 92q6 20 24 20h19q19 0 16 -20q-19 -79 -83.5 -132t-143.5 -53zM973 0q-18 0 -21 16l-55 283q-2 6 -8 6h-639q-6 0 -8 -6l-123 -283q-6 -16 -25 -16h-39
q-22 0 -12 23l614 1394q7 17 25 17h53q6 0 13 -5t8 -12l276 -1394q3 -23 -18 -23h-41zM276 383q-2 -3 1.5 -6.5t7.5 -3.5h589q4 0 7.5 3.5t1.5 6.5l-183 938q-2 5 -5.5 5t-6.5 -5z" />
    <glyph glyph-name="abreve" unicode="&#x103;" 
d="M633 1151q-79 0 -130 53t-48 131q-1 9 5 15t15 6h17q21 0 18 -21q2 -56 38 -92.5t91 -36.5q56 0 102 37t58 92q6 21 24 21h19q20 0 16 -21q-17 -78 -81.5 -131t-143.5 -53zM885 1008q3 20 22 20h37q19 0 19 -20l-121 -988q-1 -9 -8 -14.5t-15 -5.5h-39q-19 0 -16 20
l14 115q0 4 -1.5 5.5t-4 0.5t-4.5 -4q-52 -72 -129 -112.5t-168 -40.5q-134 0 -218.5 74t-98.5 196q-9 74 14 258q24 193 47 260q45 124 147 198t238 74q92 0 158.5 -40.5t101.5 -112.5q2 -3 4.5 -4t4 0.5t1.5 5.5zM776 274q15 35 23.5 79t21.5 159q15 122 17 166.5t-4 77.5
q-6 95 -68 156t-166 61q-106 0 -189 -60.5t-116 -154.5q-16 -39 -25.5 -84t-23.5 -158q-14 -115 -16 -164.5t3 -77.5q6 -96 75 -157.5t177 -61.5q107 0 183.5 62t107.5 157z" />
    <glyph glyph-name="Aogonek" unicode="&#x104;" horiz-adv-x="1214" 
d="M1020 -311q22 3 22 -17l2 -16q3 -22 -16 -25q-34 -9 -70.5 -6.5t-67 12.5t-52 37.5t-25.5 69.5q-10 137 150 250q5 5 0 8q-7 2 -11 14l-55 283q-2 6 -8 6h-639q-6 0 -8 -6l-123 -283q-6 -16 -25 -16h-39q-22 0 -12 23l614 1394q7 17 25 17h53q6 0 13 -5t8 -12l276 -1401
l4 -16q-4 -2 -6 -4q-68 -51 -111 -110.5t-40 -118.5q4 -54 44 -72.5t97 -5.5zM276 383q-2 -3 1.5 -6.5t7.5 -3.5h589q4 0 7.5 3.5t1.5 6.5l-183 938q-2 5 -5.5 5t-6.5 -5z" />
    <glyph glyph-name="aogonek" unicode="&#x105;" horiz-adv-x="1191" 
d="M795 -311q20 3 20 -17l2 -16q3 -22 -16 -25q-34 -9 -70.5 -6.5t-67 12.5t-52 37.5t-25.5 69.5q-7 137 145 248q13 8 23 8q8 0 8 8l16 127q0 4 -1.5 5.5t-4 0.5t-4.5 -4q-52 -72 -129 -112.5t-168 -40.5q-134 0 -218.5 74t-98.5 196q-9 74 14 258q24 193 47 260
q45 124 147 198t238 74q92 0 158.5 -40.5t101.5 -112.5q2 -3 4.5 -4t4 0.5t1.5 5.5l15 115q3 20 22 20h37q19 0 19 -20l-121 -988q-1 -8 -6.5 -14t-10.5 -6h-10q-4 0 -12 -4q-158 -120 -150 -229q3 -54 43 -72.5t99 -5.5zM776 274q15 35 23.5 79t21.5 159q15 122 17 166.5
t-4 77.5q-6 95 -68 156t-166 61q-106 0 -189 -60.5t-116 -154.5q-16 -39 -25.5 -84t-23.5 -158q-14 -115 -16 -164.5t3 -77.5q6 -96 75 -157.5t177 -61.5q107 0 183.5 62t107.5 157z" />
    <glyph glyph-name="Cacute" unicode="&#x106;" horiz-adv-x="1204" 
d="M725 1608q-11 0 -14 7t4 17l149 228q6 14 25 14h39q12 0 15 -7t-5 -18l-160 -227q-10 -14 -24 -14h-29zM569 -18q-201 0 -308.5 119.5t-82.5 314.5l74 604q25 194 161 312t337 118q198 0 306 -117.5t85 -310.5v-2q-3 -21 -23 -21l-39 -2q-18 0 -18 13l2 12
q20 160 -69 258t-253 98q-167 0 -279 -98t-132 -258l-74 -610q-20 -160 68.5 -259.5t255.5 -99.5q163 0 276 99.5t133 259.5v4q3 18 23 18l37 -2q18 0 18 -8l-2 -10q-23 -193 -160.5 -312.5t-335.5 -119.5z" />
    <glyph glyph-name="cacute" unicode="&#x107;" horiz-adv-x="1017" 
d="M596 1202q-11 0 -14 7t4 18l149 227q6 14 25 14h39q11 0 14 -7t-4 -17l-160 -227q-11 -15 -24 -15h-29zM494 -16q-139 0 -225.5 74.5t-104.5 199.5q-10 88 8 258q17 148 55 256q45 123 151 197.5t245 74.5q137 0 227 -72t104 -181q4 -18 4 -54q0 -19 -20 -22l-37 -4
q-18 -3 -18 18l-2 29q-8 91 -81 153t-188 62q-116 0 -200.5 -64t-116.5 -168q-29 -95 -45 -227q-16 -130 -12 -225q9 -106 77.5 -170t184.5 -64t205 62.5t114 154.5l4 11q6 20 27 16l33 -6q19 -4 14 -23q-5 -21 -10 -32q-37 -110 -146 -182t-247 -72z" />
    <glyph glyph-name="Cdotaccent" unicode="&#x10a;" horiz-adv-x="1204" 
d="M774 1640q-32 0 -50 20.5t-15 51.5q3 29 27 49.5t55 20.5q30 0 47 -20t14 -50q-3 -31 -26 -51.5t-52 -20.5zM569 -18q-201 0 -308.5 119.5t-82.5 314.5l74 604q25 194 161 312t337 118q198 0 306 -117.5t85 -310.5v-2q-3 -21 -23 -21l-39 -2q-18 0 -18 13l2 12
q20 160 -69 258t-253 98q-167 0 -279 -98t-132 -258l-74 -610q-20 -160 68.5 -259.5t255.5 -99.5q163 0 276 99.5t133 259.5v4q3 18 23 18l37 -2q18 0 18 -8l-2 -10q-23 -193 -160.5 -312.5t-335.5 -119.5z" />
    <glyph glyph-name="cdotaccent" unicode="&#x10b;" horiz-adv-x="1017" 
d="M645 1235q-32 0 -50 20.5t-15 51.5q3 29 27 49t55 20q29 0 46.5 -20t14.5 -49q-5 -31 -27 -51.5t-51 -20.5zM494 -16q-139 0 -225.5 74.5t-104.5 199.5q-10 88 8 258q17 148 55 256q45 123 151 197.5t245 74.5q137 0 227 -72t104 -181q4 -18 4 -54q0 -19 -20 -22l-37 -4
q-18 -3 -18 18l-2 29q-8 91 -81 153t-188 62q-116 0 -200.5 -64t-116.5 -168q-29 -95 -45 -227q-16 -130 -12 -225q9 -106 77.5 -170t184.5 -64t205 62.5t114 154.5l4 11q6 20 27 16l33 -6q19 -4 14 -23q-5 -21 -10 -32q-37 -110 -146 -182t-247 -72z" />
    <glyph glyph-name="Ccaron" unicode="&#x10c;" horiz-adv-x="1204" 
d="M743 1581q-19 0 -24 12l-137 222q-6 9 -1 16.5t17 7.5h29q19 0 24 -12l117 -187q3 -9 12 0l158 187q7 12 27 12h30q11 0 14.5 -7.5t-5.5 -16.5l-193 -222q-7 -12 -27 -12h-41zM569 -18q-201 0 -308.5 119.5t-82.5 314.5l74 604q25 194 161 312t337 118q198 0 306 -117.5
t85 -310.5v-2q-3 -21 -23 -21l-39 -2q-18 0 -18 13l2 12q20 160 -69 258t-253 98q-167 0 -279 -98t-132 -258l-74 -610q-20 -160 68.5 -259.5t255.5 -99.5q163 0 276 99.5t133 259.5v4q3 18 23 18l37 -2q18 0 18 -8l-2 -10q-23 -193 -160.5 -312.5t-335.5 -119.5z" />
    <glyph glyph-name="ccaron" unicode="&#x10d;" horiz-adv-x="1017" 
d="M612 1176q-17 0 -22 12l-137 221q-6 9 -1 17t17 8h29q19 0 24 -13l117 -186q3 -9 12 0l158 186q8 13 27 13h30q10 0 13 -8t-5 -17l-192 -221q-7 -12 -27 -12h-43zM494 -16q-139 0 -225.5 74.5t-104.5 199.5q-10 88 8 258q17 148 55 256q45 123 151 197.5t245 74.5
q137 0 227 -72t104 -181q4 -18 4 -54q0 -19 -20 -22l-37 -4q-18 -3 -18 18l-2 29q-8 91 -81 153t-188 62q-116 0 -200.5 -64t-116.5 -168q-29 -95 -45 -227q-16 -130 -12 -225q9 -106 77.5 -170t184.5 -64t205 62.5t114 154.5l4 11q6 20 27 16l33 -6q19 -4 14 -23
q-5 -21 -10 -32q-37 -110 -146 -182t-247 -72z" />
    <glyph glyph-name="Dcaron" unicode="&#x10e;" horiz-adv-x="1226" 
d="M754 1559q-20 0 -25 12l-135 219q-6 9 -2 17t16 8h31q18 0 23 -13l116 -186q3 -4 7 -3.5t6 3.5l157 186q10 13 27 13h31q12 0 14.5 -8t-6.5 -17l-191 -219q-12 -12 -28 -12h-41zM197 0q-20 0 -17 20l170 1393q4 21 23 21h454q184 0 279 -101.5t72 -277.5l-82 -676
q-22 -176 -141.5 -277.5t-303.5 -101.5h-454zM264 80q0 -8 6 -8h394q147 0 242 83.5t112 227.5l82 666q19 146 -55.5 229.5t-221.5 83.5h-393q-6 0 -10 -8z" />
    <glyph glyph-name="dcaron" unicode="&#x10f;" horiz-adv-x="1202" 
d="M1253 1438q7 14 25 14h39q12 0 15 -7t-5 -18l-158 -227q-14 -14 -26 -14h-29q-11 0 -14 7t4 17zM860 895q2 -3 4.5 -4t4 0.5t1.5 5.5l64 516q4 21 22 21h39q8 0 13 -6t4 -15l-170 -1393q-1 -9 -8 -14.5t-15 -5.5h-39q-19 0 -16 20l12 111q1 4 0 5.5t-3.5 0.5t-4.5 -4
q-113 -149 -295 -149q-134 0 -218.5 74t-98.5 196q-9 74 14 258q24 193 47 260q45 124 147 198t238 74q92 0 157.5 -39t100.5 -110zM778 274q15 35 23.5 79t21.5 159q15 122 17 166.5t-4 77.5q-6 95 -68 156t-166 61q-106 0 -189 -60.5t-116 -154.5q-16 -39 -25.5 -84
t-23.5 -158q-14 -114 -16 -165t4 -77q6 -96 75 -157.5t176 -61.5t182.5 61.5t108.5 157.5z" />
    <glyph glyph-name="Dcroat" unicode="&#x110;" horiz-adv-x="1370" 
d="M971 1434q184 0 278 -101.5t72 -277.5l-82 -676q-22 -176 -141 -277.5t-303 -101.5h-455q-18 0 -18 20l86 689q0 8 -9 8h-114q-20 0 -17 20l2 25q3 20 23 20h115q6 0 10 9l76 622q4 21 22 21h455zM1161 383l82 666q19 146 -55 229.5t-221 83.5h-394q-10 0 -10 -8
l-69 -563q0 -9 8 -9h268q19 0 16 -20l-2 -25q-3 -20 -22 -20h-268q-7 0 -11 -8l-75 -629q0 -8 6 -8h393q147 0 242 83.5t112 227.5z" />
    <glyph glyph-name="dcroat" unicode="&#x111;" horiz-adv-x="1191" 
d="M1143 1249q19 0 16 -20l-2 -23q-3 -20 -22 -20h-144q-8 0 -8 -8l-141 -1158q-1 -9 -8 -14.5t-15 -5.5h-39q-19 0 -16 20l12 111q1 4 0 5.5t-3.5 0.5t-4.5 -4q-113 -149 -295 -149q-134 0 -218.5 74t-98.5 196q-9 74 14 258q24 193 47 260q45 124 147 198t238 74
q92 0 157.5 -39t100.5 -110q2 -3 4.5 -4t4 0.5t1.5 5.5l35 281q0 8 -6 8h-321q-9 0 -14.5 5.5t-4.5 14.5l2 23q1 9 8 14.5t15 5.5h323q2 0 5 2.5t3 5.5l19 156q4 21 22 21h39q8 0 13 -6t4 -15l-19 -156q-1 -3 1 -5.5t5 -2.5h144zM778 274q15 35 23.5 79t21.5 159
q15 122 17 166.5t-4 77.5q-6 95 -68 156t-166 61q-106 0 -189 -60.5t-116 -154.5q-16 -39 -25.5 -84t-23.5 -158q-14 -114 -16 -165t4 -77q6 -96 75 -157.5t176 -61.5t182.5 61.5t108.5 157.5z" />
    <glyph glyph-name="Emacron" unicode="&#x112;" horiz-adv-x="1222" 
d="M1051 1722q8 0 12.5 -5.5t3.5 -14.5l-2 -25q-1 -9 -8 -14.5t-15 -5.5h-471q-18 0 -18 20l4 25q3 20 23 20h471zM1219 1382q-3 -20 -23 -20h-766q-6 0 -10 -8l-72 -590q0 -8 6 -8h549q19 0 19 -21l-4 -33q-1 -9 -8 -14.5t-15 -5.5h-549q-8 0 -8 -8l-74 -594q0 -8 6 -8h768
q20 0 17 -21l-4 -31q0 -9 -7 -14.5t-16 -5.5h-831q-20 0 -17 20l170 1393q4 21 23 21h831q9 0 14.5 -6t4.5 -15z" />
    <glyph glyph-name="emacron" unicode="&#x113;" horiz-adv-x="1048" 
d="M883 1313q19 0 16 -21l-2 -24q-3 -21 -23 -21h-471q-19 0 -16 21l2 24q3 21 23 21h471zM500 55q103 0 183 49.5t124 133.5q9 18 27 12l24 -8q19 -6 10 -27q-53 -104 -153.5 -167.5t-227.5 -63.5q-136 0 -220 71t-105 193q-11 74 10 268q22 180 47 252q45 125 150.5 200.5
t244.5 75.5q148 0 235.5 -80t96.5 -216q4 -60 -16 -232q-3 -22 -23 -22h-651q-7 0 -10 -9q-18 -169 -15 -196q8 -106 79 -170t190 -64zM606 973q-117 0 -201 -63.5t-116 -166.5q-17 -56 -33 -176q0 -8 8 -8h586q8 0 8 8q15 131 12 172q-9 105 -78.5 169.5t-185.5 64.5z" />
    <glyph glyph-name="Edotaccent" unicode="&#x116;" horiz-adv-x="1222" 
d="M805 1645q-32 0 -51 20t-15 51q3 29 27 49.5t55 20.5q29 0 47 -20.5t15 -49.5q-4 -31 -26.5 -51t-51.5 -20zM1219 1382q-3 -20 -23 -20h-766q-6 0 -10 -8l-72 -590q0 -8 6 -8h549q19 0 19 -21l-4 -33q-1 -9 -8 -14.5t-15 -5.5h-549q-8 0 -8 -8l-74 -594q0 -8 6 -8h768
q20 0 17 -21l-4 -31q0 -9 -7 -14.5t-16 -5.5h-831q-20 0 -17 20l170 1393q4 21 23 21h831q9 0 14.5 -6t4.5 -15z" />
    <glyph glyph-name="edotaccent" unicode="&#x117;" horiz-adv-x="1048" 
d="M637 1235q-32 0 -50.5 20.5t-15.5 51.5q3 29 27 49t55 20q30 0 47.5 -19.5t14.5 -49.5q-3 -31 -26 -51.5t-52 -20.5zM500 55q103 0 183 49.5t124 133.5q9 18 27 12l24 -8q19 -6 10 -27q-53 -104 -153.5 -167.5t-227.5 -63.5q-136 0 -220 71t-105 193q-11 74 10 268
q22 180 47 252q45 125 150.5 200.5t244.5 75.5q148 0 235.5 -80t96.5 -216q4 -60 -16 -232q-3 -22 -23 -22h-651q-7 0 -10 -9q-18 -169 -15 -196q8 -106 79 -170t190 -64zM606 973q-117 0 -201 -63.5t-116 -166.5q-17 -56 -33 -176q0 -8 8 -8h586q8 0 8 8q15 131 12 172
q-9 105 -78.5 169.5t-185.5 64.5z" />
    <glyph glyph-name="Eogonek" unicode="&#x118;" horiz-adv-x="1222" 
d="M1219 1382q-3 -20 -23 -20h-766q-6 0 -10 -8l-72 -590q0 -8 6 -8h549q19 0 19 -21l-4 -33q-1 -9 -8 -14.5t-15 -5.5h-549q-8 0 -8 -8l-74 -594q0 -8 6 -8h768q20 0 17 -21l-4 -31q0 -9 -7 -14.5t-16 -5.5h-377q-6 0 -10 -4q-145 -113 -137 -219q3 -54 43 -72.5t98 -5.5
q21 3 21 -16l2 -17q3 -21 -17 -24q-49 -7 -94 -5t-80 32t-41 85q-11 130 131 236q4 3 2.5 6.5t-6.5 3.5h-366q-20 0 -17 20l170 1393q4 21 23 21h831q9 0 14.5 -6t4.5 -15z" />
    <glyph glyph-name="eogonek" unicode="&#x119;" horiz-adv-x="1048" 
d="M500 55q103 0 183 49.5t124 133.5q9 18 27 12l24 -8q19 -6 10 -27q-48 -97 -139 -159t-207 -72q-6 0 -10 -4q-145 -113 -137 -220q3 -54 42.5 -72t98.5 -5q21 3 21 -17l2 -16q3 -22 -17 -25q-34 -9 -70.5 -6.5t-67 12.5t-52 37.5t-25.5 69.5q-10 127 135 239q8 8 -2 11
q-116 12 -187.5 81t-90.5 179q-11 74 10 268q22 180 47 252q45 125 150.5 200.5t244.5 75.5q148 0 235.5 -80t96.5 -216q4 -60 -16 -232q-3 -22 -23 -22h-651q-7 0 -10 -9q-18 -169 -15 -196q8 -106 79 -170t190 -64zM606 973q-117 0 -201 -63.5t-116 -166.5
q-17 -56 -33 -176q0 -8 8 -8h586q8 0 8 8q15 131 12 172q-9 105 -78.5 169.5t-185.5 64.5z" />
    <glyph glyph-name="Ecaron" unicode="&#x11a;" horiz-adv-x="1222" 
d="M842 1597q-10 -12 -27 -12h-43q-17 0 -24 12l-136 222q-6 9 -1 16.5t16 7.5h30q20 0 25 -12l117 -186q2 -4 5 -3.5t5 3.5l160 186q7 12 26 12h29q12 0 15 -7.5t-5 -16.5zM1219 1382q-3 -20 -23 -20h-766q-6 0 -10 -8l-72 -590q0 -8 6 -8h549q19 0 19 -21l-4 -33
q-1 -9 -8 -14.5t-15 -5.5h-549q-8 0 -8 -8l-74 -594q0 -8 6 -8h768q20 0 17 -21l-4 -31q0 -9 -7 -14.5t-16 -5.5h-831q-20 0 -17 20l170 1393q4 21 23 21h831q9 0 14.5 -6t4.5 -15z" />
    <glyph glyph-name="ecaron" unicode="&#x11b;" horiz-adv-x="1048" 
d="M672 1171q-9 -12 -27 -12h-41q-19 0 -24 12l-138 220q-6 9 -0.5 16.5t17.5 7.5h28q20 0 25 -12l117 -186q3 -9 12 0l158 186q7 12 26 12h31q10 0 13 -7.5t-5 -16.5zM500 55q103 0 183 49.5t124 133.5q9 18 27 12l24 -8q19 -6 10 -27q-53 -104 -153.5 -167.5t-227.5 -63.5
q-136 0 -220 71t-105 193q-11 74 10 268q22 180 47 252q45 125 150.5 200.5t244.5 75.5q148 0 235.5 -80t96.5 -216q4 -60 -16 -232q-3 -22 -23 -22h-651q-7 0 -10 -9q-18 -169 -15 -196q8 -106 79 -170t190 -64zM606 973q-117 0 -201 -63.5t-116 -166.5q-17 -56 -33 -176
q0 -8 8 -8h586q8 0 8 8q15 131 12 172q-9 105 -78.5 169.5t-185.5 64.5z" />
    <glyph glyph-name="Gbreve" unicode="&#x11e;" horiz-adv-x="1202" 
d="M762 1573q-79 0 -130 53t-48 131q0 21 20 21h17q20 0 20 -21q0 -56 36 -92.5t91 -36.5q56 0 102.5 37t59.5 92q3 21 22 21h19q19 0 16 -21q-17 -78 -81.5 -131t-143.5 -53zM569 -16q-201 0 -308.5 117.5t-82.5 308.5l74 614q25 192 161 309t337 117q197 0 304.5 -116.5
t84.5 -303.5l-2 -31q-3 -20 -23 -20h-39q-19 0 -16 20l4 31q19 156 -69.5 252t-252.5 96q-165 0 -278 -96.5t-133 -255.5l-76 -618q-19 -159 71 -256t257 -97q162 0 272.5 94.5t130.5 251.5l27 224q1 3 -1 5.5t-5 2.5h-324q-18 0 -18 20l4 31q4 21 22 21h389q19 0 19 -21
l-33 -268q-25 -198 -160.5 -315t-335.5 -117z" />
    <glyph glyph-name="gbreve" unicode="&#x11f;" horiz-adv-x="1044" 
d="M639 1169q-79 0 -130 53.5t-48 131.5q-1 9 5 14.5t15 5.5h17q20 0 20 -20q0 -56 36 -92.5t91 -36.5q56 0 102.5 37t59.5 92q3 20 22 20h19q19 0 16 -20q-17 -78 -81.5 -131.5t-143.5 -53.5zM887 1008q3 20 22 20h37q19 0 19 -20l-123 -996q-55 -435 -543 -420
q-19 0 -16 21l6 35q3 20 22 20q212 -6 321.5 80t131.5 266l16 123q0 4 -1.5 5.5t-4 0.5t-4.5 -4q-108 -151 -299 -151q-130 0 -215 72.5t-100 197.5q-14 80 8 254t55 264q45 120 147 194t234 74q188 0 262 -149q3 -6 6.5 -5t3.5 7zM791 289q13 51 34 225t21 227
q-3 100 -68 166t-176 66q-110 0 -192 -65t-123 -167q-24 -69 -43 -225q-21 -168 -13 -225q11 -102 79.5 -168t178.5 -66q114 0 194 66.5t108 165.5z" />
    <glyph glyph-name="Gdotaccent" unicode="&#x120;" horiz-adv-x="1202" 
d="M770 1640q-32 0 -50 20.5t-15 51.5q5 30 28 50t53 20t47.5 -20t14.5 -50q-3 -31 -26 -51.5t-52 -20.5zM569 -16q-201 0 -308.5 117.5t-82.5 308.5l74 614q25 192 161 309t337 117q197 0 304.5 -116.5t84.5 -303.5l-2 -31q-3 -20 -23 -20h-39q-19 0 -16 20l4 31
q19 156 -69.5 252t-252.5 96q-165 0 -278 -96.5t-133 -255.5l-76 -618q-19 -159 71 -256t257 -97q162 0 272.5 94.5t130.5 251.5l27 224q1 3 -1 5.5t-5 2.5h-324q-18 0 -18 20l4 31q4 21 22 21h389q19 0 19 -21l-33 -268q-25 -198 -160.5 -315t-335.5 -117z" />
    <glyph glyph-name="gdotaccent" unicode="&#x121;" horiz-adv-x="1044" 
d="M647 1237q-32 0 -50 20.5t-15 51.5q3 29 27 49t55 20q30 0 47 -19.5t14 -49.5q-5 -31 -27 -51.5t-51 -20.5zM887 1008q3 20 22 20h37q19 0 19 -20l-123 -996q-55 -435 -543 -420q-19 0 -16 21l6 35q3 20 22 20q212 -6 321.5 80t131.5 266l16 123q0 4 -1.5 5.5t-4 0.5
t-4.5 -4q-108 -151 -299 -151q-130 0 -215 72.5t-100 197.5q-14 80 8 254t55 264q45 120 147 194t234 74q188 0 262 -149q3 -6 6.5 -5t3.5 7zM791 289q13 51 34 225t21 227q-3 100 -68 166t-176 66q-110 0 -192 -65t-123 -167q-24 -69 -43 -225q-21 -168 -13 -225
q11 -102 79.5 -168t178.5 -66q114 0 194 66.5t108 165.5z" />
    <glyph glyph-name="uni0122" unicode="&#x122;" horiz-adv-x="1202" 
d="M569 -16q-201 0 -308.5 117.5t-82.5 308.5l74 614q25 192 161 309t337 117q197 0 304.5 -116.5t84.5 -303.5l-2 -31q-3 -20 -23 -20h-39q-19 0 -16 20l4 31q19 156 -69.5 252t-252.5 96q-165 0 -278 -96.5t-133 -255.5l-76 -618q-19 -159 71 -256t257 -97
q162 0 272.5 94.5t130.5 251.5l27 224q1 3 -1 5.5t-5 2.5h-324q-18 0 -18 20l4 31q4 21 22 21h389q19 0 19 -21l-33 -268q-25 -198 -160.5 -315t-335.5 -117zM428 -403q-12 0 -15 6.5t3 17.5l149 227q9 15 27 15h37q12 0 15 -7.5t-5 -17.5l-158 -227q-14 -14 -26 -14h-27z
" />
    <glyph glyph-name="uni0123" unicode="&#x123;" horiz-adv-x="1044" 
d="M762 1434q12 0 15 -7t-5 -18l-147 -227q-9 -15 -27 -15h-37q-12 0 -15 7.5t3 17.5l160 227q11 15 26 15h27zM887 1008q3 20 22 20h37q19 0 19 -20l-123 -996q-55 -435 -543 -420q-19 0 -16 21l6 35q3 20 22 20q212 -6 321.5 80t131.5 266l16 123q0 4 -1.5 5.5t-4 0.5
t-4.5 -4q-108 -151 -299 -151q-130 0 -215 72.5t-100 197.5q-14 80 8 254t55 264q45 120 147 194t234 74q188 0 262 -149q3 -6 6.5 -5t3.5 7zM791 289q13 51 34 225t21 227q-3 100 -68 166t-176 66q-110 0 -192 -65t-123 -167q-24 -69 -43 -225q-21 -168 -13 -225
q11 -102 79.5 -168t178.5 -66q114 0 194 66.5t108 165.5z" />
    <glyph glyph-name="Hbar" unicode="&#x126;" horiz-adv-x="1323" 
d="M1307 1108q19 0 16 -21l-2 -24q-3 -21 -23 -21h-94q-8 0 -8 -8l-125 -1014q-3 -20 -22 -20h-37q-19 0 -19 20l80 654q1 3 -1 5.5t-5 2.5h-721q-8 0 -8 -8l-82 -654q0 -9 -7 -14.5t-16 -5.5h-36q-20 0 -17 20l123 1014q1 3 -1 5.5t-5 2.5h-98q-8 0 -13 6t-4 15l2 24
q4 21 23 21h98q8 0 8 8l37 297q4 21 23 21h37q9 0 14 -6t4 -15l-37 -297q0 -8 6 -8h723q8 0 8 8l37 297q0 9 7 15t16 6h37q18 0 18 -21l-37 -297q0 -8 6 -8h95zM1075 756q10 0 10 8l33 270q0 8 -6 8h-721q-10 0 -10 -8l-33 -270q0 -8 6 -8h721z" />
    <glyph glyph-name="hbar" unicode="&#x127;" horiz-adv-x="1064" 
d="M649 1042q149 0 230.5 -95.5t62.5 -250.5l-84 -676q0 -9 -6.5 -14.5t-15.5 -5.5h-37q-19 0 -19 20l82 662q15 127 -50.5 208t-184.5 81q-130 0 -218.5 -79t-103.5 -206l-82 -666q-3 -20 -22 -20h-37q-9 0 -14.5 5.5t-4.5 14.5l138 1121q0 8 -7 8h-122q-9 0 -14.5 5.5
t-4.5 14.5l4 23q0 9 7 14.5t16 5.5h123q8 0 8 9l24 192q0 9 6.5 15t14.5 6h39q19 0 16 -21l-22 -192q0 -9 6 -9h342q18 0 18 -20l-4 -23q-3 -20 -22 -20h-342q-9 0 -9 -8l-30 -244q0 -6 2.5 -7.5t5.5 3.5q109 149 311 149z" />
    <glyph glyph-name="Imacron" unicode="&#x12a;" horiz-adv-x="509" 
d="M186 1657q-21 0 -18 20l4 25q0 9 7 14.5t16 5.5h469q21 0 18 -20l-4 -25q0 -9 -7 -14.5t-16 -5.5h-469zM197 0q-20 0 -17 20l170 1393q4 21 23 21h37q9 0 14 -6t4 -15l-172 -1393q0 -9 -7 -14.5t-16 -5.5h-36z" />
    <glyph glyph-name="imacron" unicode="&#x12b;" horiz-adv-x="421" 
d="M86 1249q-18 0 -18 21l4 24q4 21 22 21h471q9 0 14 -6t3 -15l-2 -24q-4 -21 -23 -21h-471zM150 0q-19 0 -19 20l121 988q1 9 7.5 14.5t14.5 5.5h39q20 0 17 -20l-121 -988q-3 -20 -23 -20h-36z" />
    <glyph glyph-name="Iogonek" unicode="&#x12e;" horiz-adv-x="686" 
d="M356 -311q23 3 23 -17l2 -16q3 -22 -16 -25q-34 -9 -70.5 -6.5t-67 12.5t-52 37.5t-25.5 69.5q-10 140 151 252q2 1 2 8q-5 5 -2 16l170 1393q3 21 23 21h38q8 0 13 -6t4 -15l-170 -1393l-6 -20h-2q-161 -120 -156 -233q4 -54 44 -72.5t97 -5.5z" />
    <glyph glyph-name="iogonek" unicode="&#x12f;" horiz-adv-x="569" 
d="M430 1237q-31 0 -49.5 20.5t-15.5 51.5q5 29 27.5 49t53.5 20t48.5 -20t13.5 -49q-3 -31 -26 -51.5t-52 -20.5zM299 -311q23 3 23 -17l2 -16q3 -22 -17 -25q-34 -9 -71 -6.5t-67.5 12.5t-51.5 37.5t-25 69.5q-10 137 152 252q4 2 0 6q-4 9 -2 18l120 988q3 20 23 20h37
q18 0 18 -20l-123 -992l-2 -16q-4 -2 -6 -4q-68 -51 -111 -110.5t-40 -118.5q4 -54 44 -72.5t97 -5.5z" />
    <glyph glyph-name="Idotaccent" unicode="&#x130;" horiz-adv-x="509" 
d="M418 1645q-31 0 -49.5 20.5t-14.5 50.5q3 29 26.5 49.5t55.5 20.5q29 0 47 -20.5t15 -49.5q-5 -31 -27 -51t-53 -20zM197 0q-20 0 -17 20l170 1393q4 21 23 21h37q9 0 14 -6t4 -15l-172 -1393q0 -9 -7 -14.5t-16 -5.5h-36z" />
    <glyph glyph-name="dotlessi" unicode="&#x131;" horiz-adv-x="421" 
d="M150 0q-19 0 -19 20l121 988q1 9 7.5 14.5t14.5 5.5h39q20 0 17 -20l-121 -988q-3 -20 -23 -20h-36z" />
    <glyph glyph-name="ij" unicode="&#x133;" horiz-adv-x="917" 
d="M352 1253q-34 0 -53.5 22t-15.5 56q3 31 28.5 52.5t59.5 21.5t53 -21t16 -53q-5 -34 -29.5 -56t-58.5 -22zM809 1251q-34 0 -53 21.5t-15 56.5t28.5 55.5t57.5 20.5q37 0 56 -20.5t16 -55.5q-5 -35 -29 -56.5t-61 -21.5zM178 0q-19 0 -16 20l121 988q3 20 22 20h37
q21 0 18 -20l-120 -988q-3 -20 -23 -20h-39zM350 -430q-19 0 -16 20l2 31q4 21 24 21q102 5 165 64t75 163l139 1139q3 20 23 20h37q21 0 18 -20l-139 -1137q-19 -143 -102.5 -220t-225.5 -81z" />
    <glyph glyph-name="uni0136" unicode="&#x136;" horiz-adv-x="1200" 
d="M197 0q-20 0 -17 20l170 1393q4 21 23 21h37q9 0 14 -6t4 -15l-92 -745q0 -4 3.5 -5.5t6.5 1.5l797 759q11 11 24 11h41q12 0 16 -7t-5 -18l-574 -559q-5 -5 -2 -12l453 -813q6 -9 1 -17t-16 -8h-49q-15 0 -22 12l-428 766q0 3 -4 4t-7 -2l-245 -225q-4 -4 -4 -10
l-66 -525q0 -9 -7 -14.5t-16 -5.5h-36zM465 -387q-12 0 -15 7.5t5 17.5l149 227q6 14 25 14h37q12 0 15.5 -6.5t-3.5 -17.5l-160 -228q-11 -14 -24 -14h-29z" />
    <glyph glyph-name="uni0137" unicode="&#x137;" horiz-adv-x="964" 
d="M164 0q-9 0 -14.5 5.5t-4.5 14.5l172 1393q0 9 6.5 15t14.5 6h39q19 0 16 -21l-110 -901q0 -4 3.5 -5.5t6.5 1.5l551 510q10 10 24 10h52q11 0 13.5 -7t-7.5 -17l-283 -269q-6 -6 -4 -10l219 -700q3 -10 -3 -17.5t-17 -7.5h-39q-18 0 -21 16l-198 652q-4 9 -11 2
l-295 -271q-6 -3 -6 -10l-45 -369q-3 -20 -22 -20h-37zM346 -387q-12 0 -15 7.5t5 17.5l147 227q8 14 27 14h37q12 0 15 -6.5t-3 -17.5l-160 -228q-11 -14 -26 -14h-27z" />
    <glyph glyph-name="Lacute" unicode="&#x139;" horiz-adv-x="1126" 
d="M367 1591q-12 0 -15 7.5t4 17.5l148 227q9 15 26 15h37q12 0 15.5 -7t-2.5 -18l-160 -227q-11 -15 -27 -15h-26zM197 0q-20 0 -17 20l170 1393q4 21 23 21h37q9 0 14 -6t4 -15l-164 -1333q0 -8 6 -8h721q9 0 14.5 -6t4.5 -15l-4 -31q-3 -20 -23 -20h-786z" />
    <glyph glyph-name="lacute" unicode="&#x13a;" horiz-adv-x="444" 
d="M336 1591q-11 0 -14 7.5t4 17.5l149 227q6 15 25 15h39q11 0 14 -7t-4 -18l-160 -227q-11 -15 -24 -15h-29zM166 0q-9 0 -14.5 5.5t-4.5 14.5l172 1393q0 9 6.5 15t14.5 6h39q19 0 16 -21l-170 -1393q-3 -20 -22 -20h-37z" />
    <glyph glyph-name="uni013B" unicode="&#x13b;" horiz-adv-x="1126" 
d="M197 0q-20 0 -17 20l170 1393q4 21 23 21h37q9 0 14 -6t4 -15l-164 -1333q0 -8 6 -8h721q9 0 14.5 -6t4.5 -15l-4 -31q-3 -20 -23 -20h-786zM397 -387q-12 0 -15 7.5t5 17.5l150 227q6 14 24 14h37q12 0 15.5 -6.5t-3.5 -17.5l-159 -228q-11 -14 -25 -14h-29z" />
    <glyph glyph-name="uni013C" unicode="&#x13c;" horiz-adv-x="444" 
d="M166 0q-9 0 -14.5 5.5t-4.5 14.5l172 1393q0 9 6.5 15t14.5 6h39q19 0 16 -21l-170 -1393q-3 -20 -22 -20h-37zM-23 -387q-11 0 -14 7.5t4 17.5l150 227q6 14 24 14h39q12 0 15 -6.5t-5 -17.5l-159 -228q-11 -14 -25 -14h-29z" />
    <glyph glyph-name="Lcaron" unicode="&#x13d;" horiz-adv-x="1126" 
d="M381 1548q-20 0 -25 13l-135 219q-6 9 -1.5 16.5t16.5 7.5h30q18 0 23 -12l117 -186q7 -10 12 0l157 186q10 12 27 12h31q12 0 14.5 -7.5t-6.5 -16.5l-190 -219q-13 -13 -29 -13h-41zM197 0q-20 0 -17 20l170 1393q4 21 23 21h37q9 0 14 -6t4 -15l-164 -1333q0 -8 6 -8
h721q9 0 14.5 -6t4.5 -15l-4 -31q-3 -20 -23 -20h-786z" />
    <glyph glyph-name="lcaron" unicode="&#x13e;" horiz-adv-x="444" 
d="M350 1548q-17 0 -22 13l-138 219q-6 9 -1 16.5t16 7.5h31q19 0 24 -12l117 -186q2 -4 5 -3.5t5 3.5l160 186q7 12 26 12h29q12 0 15 -7.5t-5 -16.5l-192 -219q-10 -13 -27 -13h-43zM166 0q-9 0 -14.5 5.5t-4.5 14.5l172 1393q0 9 6.5 15t14.5 6h39q19 0 16 -21
l-170 -1393q-3 -20 -22 -20h-37z" />
    <glyph glyph-name="Lslash" unicode="&#x141;" horiz-adv-x="1126" 
d="M264 80q0 -8 6 -8h721q9 0 14.5 -6t4.5 -15l-4 -31q-3 -20 -23 -20h-786q-20 0 -17 20l64 525q0 5 -2.5 7t-5.5 -1l-246 -164q-18 -14 -27 4l-14 23q-8 15 8 28l293 197q6 6 6 10l94 764q4 21 23 21h37q9 0 14 -6t4 -15l-86 -700q0 -5 2.5 -7t5.5 1l524 354q17 11 29 -4
l15 -25q8 -16 -9 -28l-573 -386q-6 -6 -6 -10z" />
    <glyph glyph-name="lslash" unicode="&#x142;" horiz-adv-x="444" 
d="M555 852q6 -18 -8 -27l-234 -139q-8 -4 -8 -10l-80 -656q-3 -20 -22 -20h-37q-9 0 -14.5 5.5t-4.5 14.5l74 601q0 5 -2.5 7t-5.5 -1l-129 -78q-20 -12 -27 8l-12 25q-6 17 10 26l172 103q6 3 6 10l86 692q0 9 6.5 15t14.5 6h39q19 0 16 -21l-78 -635q0 -5 4 -7t7 1
l188 115q20 13 27 -8z" />
    <glyph glyph-name="Nacute" unicode="&#x143;" horiz-adv-x="1351" 
d="M793 1612q-12 0 -15.5 7t2.5 17l150 228q8 14 26 14h37q12 0 15 -7t-4 -18l-158 -227q-14 -14 -27 -14h-26zM197 0q-20 0 -17 20l170 1393q4 21 23 21h39q14 0 22 -15l596 -1249q1 -4 3 -5t4 1t3 6l152 1241q4 21 22 21h39q9 0 14 -6t3 -15l-170 -1393q-3 -20 -23 -20
h-43q-13 0 -20 14l-594 1252q-3 6 -6.5 5t-3.5 -7l-154 -1244q0 -9 -7 -14.5t-16 -5.5h-36z" />
    <glyph glyph-name="nacute" unicode="&#x144;" horiz-adv-x="1064" 
d="M797 1452q11 0 14 -7t-4 -18l-160 -227q-11 -14 -24 -14h-29q-11 0 -14 7t4 17l149 228q6 14 25 14h39zM649 1042q149 0 230.5 -95.5t62.5 -250.5l-84 -676q0 -9 -6.5 -14.5t-15.5 -5.5h-37q-19 0 -19 20l82 662q15 127 -50.5 208t-184.5 81q-130 0 -218.5 -79
t-103.5 -206l-82 -666q-3 -20 -22 -20h-37q-9 0 -14.5 5.5t-4.5 14.5l121 988q3 20 23 20h39q8 0 12.5 -5.5t3.5 -14.5l-14 -111q0 -6 2.5 -7.5t5.5 3.5q109 149 311 149z" />
    <glyph glyph-name="uni0145" unicode="&#x145;" horiz-adv-x="1351" 
d="M197 0q-20 0 -17 20l170 1393q4 21 23 21h39q14 0 22 -15l596 -1249q1 -4 3 -5t4 1t3 6l152 1241q4 21 22 21h39q9 0 14 -6t3 -15l-170 -1393q-3 -20 -23 -20h-43q-13 0 -20 14l-594 1252q-3 6 -6.5 5t-3.5 -7l-154 -1244q0 -9 -7 -14.5t-16 -5.5h-36zM508 -387
q-11 0 -14 7.5t4 17.5l149 227q6 14 25 14h39q12 0 15 -6.5t-5 -17.5l-160 -228q-11 -14 -24 -14h-29z" />
    <glyph glyph-name="uni0146" unicode="&#x146;" horiz-adv-x="1064" 
d="M649 1042q149 0 230.5 -95.5t62.5 -250.5l-84 -676q0 -9 -6.5 -14.5t-15.5 -5.5h-37q-19 0 -19 20l82 662q15 127 -50.5 208t-184.5 81q-130 0 -218.5 -79t-103.5 -206l-82 -666q-3 -20 -22 -20h-37q-9 0 -14.5 5.5t-4.5 14.5l121 988q3 20 23 20h39q8 0 12.5 -5.5
t3.5 -14.5l-14 -111q0 -6 2.5 -7.5t5.5 3.5q109 149 311 149zM373 -387q-11 0 -14.5 7.5t3.5 17.5l150 227q6 14 25 14h38q12 0 15 -6.5t-4 -17.5l-158 -228q-14 -14 -27 -14h-28z" />
    <glyph glyph-name="Ncaron" unicode="&#x147;" horiz-adv-x="1351" 
d="M809 1585q-20 0 -25 12l-135 222q-7 9 -2 16.5t17 7.5h28q20 0 25 -12l117 -186q7 -10 12 0l158 186q10 12 26 12h31q12 0 14.5 -7.5t-6.5 -16.5l-192 -222q-7 -12 -27 -12h-41zM197 0q-20 0 -17 20l170 1393q4 21 23 21h39q14 0 22 -15l596 -1249q1 -4 3 -5t4 1t3 6
l152 1241q4 21 22 21h39q9 0 14 -6t3 -15l-170 -1393q-3 -20 -23 -20h-43q-13 0 -20 14l-594 1252q-3 6 -6.5 5t-3.5 -7l-154 -1244q0 -9 -7 -14.5t-16 -5.5h-36z" />
    <glyph glyph-name="ncaron" unicode="&#x148;" horiz-adv-x="1064" 
d="M680 1171q-7 -12 -27 -12h-43q-17 0 -22 12l-137 222q-6 9 -1 16.5t17 7.5h29q19 0 24 -12l117 -186q3 -9 12 0l158 186q7 12 27 12h30q10 0 13 -7.5t-5 -16.5zM649 1042q149 0 230.5 -95.5t62.5 -250.5l-84 -676q0 -9 -6.5 -14.5t-15.5 -5.5h-37q-19 0 -19 20l82 662
q15 127 -50.5 208t-184.5 81q-130 0 -218.5 -79t-103.5 -206l-82 -666q-3 -20 -22 -20h-37q-9 0 -14.5 5.5t-4.5 14.5l121 988q3 20 23 20h39q8 0 12.5 -5.5t3.5 -14.5l-14 -111q0 -6 2.5 -7.5t5.5 3.5q109 149 311 149z" />
    <glyph glyph-name="Eng" unicode="&#x14a;" horiz-adv-x="1353" 
d="M1192 1413q4 21 22 21h39q9 0 14 -6t3 -15l-174 -1413q-18 -146 -86 -219.5t-205 -77.5q-8 0 -13 6t-4 15l5 30q3 21 22 21q95 4 142.5 59.5t60.5 159.5v10l-598 1262q-3 6 -6.5 5t-3.5 -7l-154 -1244q0 -9 -7 -14.5t-16 -5.5h-36q-20 0 -17 20l170 1393q4 21 23 21h39
q14 0 22 -15l596 -1249q1 -4 3 -5t4 1t3 6z" />
    <glyph glyph-name="eng" unicode="&#x14b;" horiz-adv-x="1064" 
d="M907 418l2 -4l-55 -453q-18 -138 -88.5 -215.5t-196.5 -83.5q-9 0 -14 6t-4 15l4 28q3 21 23 21q84 7 135 68.5t63 160.5l4 35v4h-2l84 682q15 127 -50.5 208t-184.5 81q-130 0 -218.5 -79t-103.5 -206l-82 -666q-3 -20 -22 -20h-37q-9 0 -14.5 5.5t-4.5 14.5l121 988
q3 20 23 20h39q8 0 12.5 -5.5t3.5 -14.5l-14 -111q0 -4 1.5 -5.5t4 -0.5t4.5 4q109 147 309 147q149 0 230.5 -95.5t62.5 -250.5z" />
    <glyph glyph-name="Omacron" unicode="&#x14c;" horiz-adv-x="1234" 
d="M545 1653q-19 0 -19 20l4 25q3 20 23 20h471q19 0 16 -20l-2 -25q-3 -20 -22 -20h-471zM573 -16q-202 0 -310 126t-83 330l70 551q25 206 163.5 332.5t340.5 126.5q204 0 313 -126.5t84 -332.5l-68 -551q-25 -204 -165.5 -330t-344.5 -126zM584 55q168 0 284 105t138 276
l67 557q22 173 -68.5 279t-259.5 106q-167 0 -282 -106t-137 -279l-68 -557q-22 -171 68 -276t258 -105z" />
    <glyph glyph-name="omacron" unicode="&#x14d;" 
d="M408 1247q-19 0 -19 21l4 24q3 21 23 21h471q19 0 16 -21l-2 -24q-3 -21 -22 -21h-471zM489 -16q-140 0 -226 74.5t-101 199.5q-11 72 10 258q22 177 49 256q46 123 152.5 197.5t244.5 74.5q139 0 228.5 -75t101.5 -197q8 -65 -14 -256q-23 -189 -47 -258
q-46 -124 -153 -199t-245 -75zM498 55q115 0 200.5 64.5t118.5 169.5q18 53 39 225q21 192 18 225q-8 105 -79 169.5t-187 64.5q-114 0 -199 -64.5t-120 -169.5q-20 -63 -39 -225q-21 -184 -17 -225q9 -106 79 -170t186 -64z" />
    <glyph glyph-name="Ohungarumlaut" unicode="&#x150;" horiz-adv-x="1234" 
d="M594 1604q-11 0 -15 7t3 17l147 227q6 15 25 15h34q11 0 14.5 -7t-3.5 -18l-152 -227q-11 -14 -24 -14h-29zM901 1604q-11 0 -14 7t4 17l149 227q9 15 25 15h33q12 0 15 -7t-5 -18l-152 -227q-14 -14 -26 -14h-29zM573 -16q-202 0 -310 126t-83 330l70 551
q25 206 163.5 332.5t340.5 126.5q204 0 313 -126.5t84 -332.5l-68 -551q-25 -204 -165.5 -330t-344.5 -126zM584 55q168 0 284 105t138 276l67 557q22 173 -68.5 279t-259.5 106q-167 0 -282 -106t-137 -279l-68 -557q-22 -171 68 -276t258 -105z" />
    <glyph glyph-name="ohungarumlaut" unicode="&#x151;" 
d="M457 1198q-11 0 -15.5 7t2.5 18l148 227q6 14 24 14h35q11 0 14.5 -7t-3.5 -17l-152 -228q-10 -14 -25 -14h-28zM764 1198q-11 0 -14 7t4 18l149 227q8 14 25 14h33q12 0 15 -7t-5 -17l-152 -228q-14 -14 -26 -14h-29zM489 -16q-140 0 -226 74.5t-101 199.5
q-11 72 10 258q22 177 49 256q46 123 152.5 197.5t244.5 74.5q139 0 228.5 -75t101.5 -197q8 -65 -14 -256q-23 -189 -47 -258q-46 -124 -153 -199t-245 -75zM498 55q115 0 200.5 64.5t118.5 169.5q18 53 39 225q21 192 18 225q-8 105 -79 169.5t-187 64.5
q-114 0 -199 -64.5t-120 -169.5q-20 -63 -39 -225q-21 -184 -17 -225q9 -106 79 -170t186 -64z" />
    <glyph glyph-name="OE" unicode="&#x152;" horiz-adv-x="1818" 
d="M1815 1382q-3 -20 -23 -20h-659q-9 0 -9 -8l-73 -590q0 -8 8 -8h442q19 0 19 -21l-4 -33q-1 -9 -8 -14.5t-15 -5.5h-444q-9 0 -9 -8l-73 -594q0 -8 8 -8h659q20 0 17 -21l-4 -31q0 -9 -7 -14.5t-16 -5.5h-725q-8 0 -12.5 5.5t-3.5 14.5l16 134q0 5 -2.5 6.5t-5.5 -2.5
q-66 -81 -160.5 -127.5t-202.5 -46.5q-179 0 -276.5 118t-75.5 301l78 625q22 184 149 303t306 119q108 0 190.5 -46.5t126.5 -127.5q3 -4 6.5 -2.5t3.5 6.5l17 133q1 9 7.5 15t14.5 6h725q9 0 14.5 -6t4.5 -15zM547 55q152 0 258 97t125 247l76 631q19 150 -63 249t-234 99
q-149 0 -254.5 -99t-122.5 -249l-78 -631q-19 -150 62 -247t231 -97z" />
    <glyph glyph-name="oe" unicode="&#x153;" horiz-adv-x="1689" 
d="M1153 55q96 0 175.5 50t121.5 131q6 18 25 12l24 -8q19 -6 10 -27q-53 -104 -150 -166.5t-220 -62.5q-113 0 -191 53.5t-108 146.5q-6 10 -13 0q-55 -91 -148.5 -145.5t-203.5 -54.5q-134 0 -218.5 75t-98.5 199q-1 10 -1.5 21t-1 20.5t0 23.5t0.5 22.5t1.5 25.5t2 25
t2.5 28.5t3 28t3.5 31.5t3.5 32q22 184 47 256q45 123 148.5 197.5t236.5 74.5q110 0 190 -54.5t111 -145.5q7 -10 13 0q55 91 147.5 145.5t200.5 54.5q136 0 222.5 -75t100.5 -197q5 -40 2 -87.5t-18 -164.5q0 -10 -7 -16t-16 -6h-632q-9 0 -9 -9q-20 -163 -16 -200
q8 -107 76 -170.5t184 -63.5zM795 289q11 34 34 225q24 192 21 225q-6 104 -74 169t-180 65q-111 0 -193.5 -65t-115.5 -169q-18 -65 -37 -225q-22 -171 -19 -225q8 -105 74.5 -169.5t177.5 -64.5q112 0 196.5 65t115.5 169zM1257 973q-113 0 -195 -65t-114 -169
q-12 -34 -30 -174q0 -8 6 -8h569q8 0 8 8q14 130 12 174q-9 104 -77 169t-179 65z" />
    <glyph glyph-name="Racute" unicode="&#x154;" horiz-adv-x="1214" 
d="M918 1858q12 0 15 -7t-5 -18l-158 -227q-15 -15 -27 -15h-26q-12 0 -15.5 7.5t3.5 17.5l149 227q9 15 27 15h37zM1012 0q-20 0 -23 14l-231 668q-3 6 -8 6h-404q-8 0 -8 -8l-82 -660q0 -9 -7 -14.5t-16 -5.5h-36q-20 0 -17 20l170 1397q4 21 23 21h487q164 0 251 -105
t67 -274q-19 -146 -110 -244.5t-226 -120.5q-9 -3 -6 -10l227 -659q4 -10 -0.5 -17.5t-15.5 -7.5h-35zM430 1364q-6 0 -10 -8l-72 -590q0 -8 6 -8h420q130 0 219.5 83.5t106.5 217.5q17 137 -52.5 221t-199.5 84h-418z" />
    <glyph glyph-name="racute" unicode="&#x155;" horiz-adv-x="706" 
d="M698 1470q12 0 15.5 -7t-2.5 -17l-160 -227q-11 -15 -27 -15h-26q-12 0 -15 7t4 18l148 227q8 14 27 14h36zM629 1036q70 0 112 -22q16 -6 9 -27l-21 -41q-5 -19 -24 -10q-41 17 -97 14q-117 0 -205.5 -92t-103.5 -223l-76 -615q-3 -20 -22 -20h-37q-9 0 -14.5 5.5
t-4.5 14.5l121 988q3 20 23 20h39q8 0 12.5 -5.5t3.5 -14.5l-18 -154q-1 -4 0 -6t3.5 -1t4.5 5q51 86 126.5 135t168.5 49z" />
    <glyph glyph-name="uni0156" unicode="&#x156;" horiz-adv-x="1214" 
d="M842 694q-9 -3 -6 -10l227 -659q4 -10 -0.5 -17.5t-15.5 -7.5h-35q-20 0 -23 14l-231 668q-3 6 -8 6h-404q-8 0 -8 -8l-82 -660q0 -9 -7 -14.5t-16 -5.5h-36q-20 0 -17 20l170 1397q4 21 23 21h487q164 0 251 -105t67 -274q-19 -146 -110 -244.5t-226 -120.5zM430 1364
q-6 0 -10 -8l-72 -590q0 -8 6 -8h420q130 0 219.5 83.5t106.5 217.5q17 137 -52.5 221t-199.5 84h-418zM453 -387q-12 0 -15 7.5t4 17.5l150 227q6 14 24 14h39q11 0 14.5 -6.5t-3.5 -17.5l-160 -228q-11 -14 -25 -14h-28z" />
    <glyph glyph-name="uni0157" unicode="&#x157;" horiz-adv-x="710" 
d="M629 1036q70 0 112 -22q16 -6 9 -27l-21 -41q-5 -19 -24 -10q-41 17 -97 14q-117 0 -205.5 -92t-103.5 -223l-76 -615q-3 -20 -22 -20h-37q-9 0 -14.5 5.5t-4.5 14.5l121 988q3 20 23 20h39q8 0 12.5 -5.5t3.5 -14.5l-18 -154q-1 -4 0 -6t3.5 -1t4.5 5q51 86 126.5 135
t168.5 49zM-23 -387q-11 0 -14 7.5t4 17.5l150 227q6 14 24 14h39q12 0 15 -6.5t-5 -17.5l-159 -228q-11 -14 -25 -14h-29z" />
    <glyph glyph-name="Rcaron" unicode="&#x158;" horiz-adv-x="1214" 
d="M801 1577q-7 -12 -27 -12h-41q-19 0 -24 12l-138 221q-6 9 -0.5 17t17.5 8h28q20 0 25 -13l117 -186q7 -10 12 0l158 186q8 13 26 13h31q12 0 14.5 -8t-6.5 -17zM1012 0q-20 0 -23 14l-231 668q-3 6 -8 6h-404q-8 0 -8 -8l-82 -660q0 -9 -7 -14.5t-16 -5.5h-36
q-20 0 -17 20l170 1397q4 21 23 21h487q164 0 251 -105t67 -274q-19 -146 -110 -244.5t-226 -120.5q-9 -3 -6 -10l227 -659q4 -10 -0.5 -17.5t-15.5 -7.5h-35zM430 1364q-6 0 -10 -8l-72 -590q0 -8 6 -8h420q130 0 219.5 83.5t106.5 217.5q17 137 -52.5 221t-199.5 84h-418z
" />
    <glyph glyph-name="rcaron" unicode="&#x159;" horiz-adv-x="706" 
d="M584 1190q-10 -12 -29 -12h-41q-20 0 -25 12l-135 221q-6 9 -1.5 17t16.5 8h30q17 0 25 -13l115 -186q7 -10 12 0l158 186q10 13 28 13h29q12 0 15 -8t-5 -17zM629 1036q70 0 112 -22q16 -6 9 -27l-21 -41q-5 -19 -24 -10q-41 17 -97 14q-117 0 -205.5 -92t-103.5 -223
l-76 -615q-3 -20 -22 -20h-37q-9 0 -14.5 5.5t-4.5 14.5l121 988q3 20 23 20h39q8 0 12.5 -5.5t3.5 -14.5l-18 -154q-1 -4 0 -6t3.5 -1t4.5 5q51 86 126.5 135t168.5 49z" />
    <glyph glyph-name="Sacute" unicode="&#x15a;" horiz-adv-x="1159" 
d="M682 1608q-12 0 -15 7t5 17l149 228q6 14 25 14h37q12 0 15.5 -7t-3.5 -18l-160 -227q-11 -14 -24 -14h-29zM549 -16q-213 0 -325.5 98.5t-92.5 263.5l10 72q0 9 7 14.5t16 5.5h33q18 0 18 -20l-8 -66q-17 -133 79 -215t277 -82q174 0 277 76t118 207q8 62 -7.5 109.5
t-61 91.5t-111 82.5t-172.5 89.5q-91 42 -134 64t-99.5 59.5t-79 72t-36 86t-5.5 115.5q20 165 139 253.5t316 88.5q215 0 321.5 -99t85.5 -268l-6 -49q-3 -20 -23 -20h-36q-19 0 -19 20l6 43q18 137 -71.5 219t-270.5 82q-162 0 -256.5 -68t-109.5 -198
q-16 -122 54.5 -183.5t276.5 -152.5q105 -48 173 -88t121.5 -91.5t73.5 -113.5t11 -139q-21 -164 -149 -262t-340 -98z" />
    <glyph glyph-name="sacute" unicode="&#x15b;" horiz-adv-x="942" 
d="M541 1194q-12 0 -15.5 7t2.5 18l150 227q8 14 27 14h36q12 0 15 -7t-4 -17l-158 -228q-14 -14 -27 -14h-26zM440 -8q-155 0 -244 76t-75 186l4 29q0 9 6.5 14.5t15.5 5.5h35q20 0 17 -20l-2 -27q-9 -80 60 -138.5t189 -58.5t201 58.5t92 150.5q6 45 -6.5 77.5t-56 58.5
t-68.5 36.5t-95 34.5q-18 7 -28 10q-61 20 -96.5 33.5t-82.5 39t-70.5 52t-38 68t-7.5 92.5q13 121 116.5 193.5t256.5 72.5q154 0 239.5 -74.5t71.5 -189.5l-2 -6q-4 -21 -22 -21h-33q-9 0 -14.5 4.5t-3.5 10.5l2 12q9 84 -58.5 140.5t-189.5 56.5q-119 0 -197.5 -54
t-89.5 -141q-5 -36 7 -66t30 -49t57 -39t67.5 -30.5t82.5 -28.5q141 -46 193 -75q129 -72 115 -205q0 -4 -1 -9q-14 -124 -117.5 -202t-259.5 -78z" />
    <glyph glyph-name="Scedilla" unicode="&#x15e;" horiz-adv-x="1159" 
d="M1038 344q-21 -157 -140 -254t-318 -106q-5 0 -5.5 -3t3.5 -8q114 -105 71 -235q-19 -55 -61.5 -85.5t-88 -32.5t-91.5 5q-19 3 -15 25l6 16q9 20 29 17q55 -13 99.5 4.5t60.5 72.5q35 105 -86 222q0 4 -8 4q-187 12 -284.5 109t-78.5 251l10 72q0 9 7 14.5t16 5.5h33
q18 0 18 -20l-8 -66q-17 -133 79 -215t277 -82q174 0 277 76t118 207q8 62 -7.5 109.5t-61 91.5t-111 82.5t-172.5 89.5q-91 42 -134 64t-99.5 59.5t-79 72t-36 86t-5.5 115.5q20 165 139 253.5t316 88.5q215 0 321.5 -99t85.5 -268l-6 -49q-3 -20 -23 -20h-36q-19 0 -19 20
l6 43q18 137 -71.5 219t-270.5 82q-162 0 -256.5 -68t-109.5 -198q-16 -122 54.5 -183.5t276.5 -152.5q105 -48 173 -88t121.5 -91.5t73.5 -113.5t11 -139z" />
    <glyph glyph-name="scedilla" unicode="&#x15f;" horiz-adv-x="942" 
d="M817 272q-14 -114 -105.5 -191t-230.5 -89q-12 0 -4 -8q117 -109 76 -238q-15 -42 -43 -69.5t-61 -37.5t-69.5 -12.5t-68.5 6.5q-18 3 -14 25l6 16q9 20 27 17q56 -13 101 5t61 73q35 104 -86 221q0 4 -9 4q-136 10 -212 84t-64 176l4 29q0 9 6.5 14.5t15.5 5.5h35
q20 0 17 -20l-2 -27q-9 -80 60 -138.5t189 -58.5t201 58.5t92 150.5q6 45 -6.5 77.5t-56 58.5t-68.5 36.5t-95 34.5q-18 7 -28 10q-61 20 -96.5 33.5t-82.5 39t-70.5 52t-38 68t-7.5 92.5q13 121 116.5 193.5t256.5 72.5q154 0 239.5 -74.5t71.5 -189.5l-2 -6
q-4 -21 -22 -21h-33q-9 0 -14.5 4.5t-3.5 10.5l2 12q9 84 -58.5 140.5t-189.5 56.5q-119 0 -197.5 -54t-89.5 -141q-5 -36 7 -66t30 -49t57 -39t67.5 -30.5t82.5 -28.5q141 -46 193 -75q129 -72 115 -205q0 -4 -1 -9z" />
    <glyph glyph-name="Scaron" unicode="&#x160;" horiz-adv-x="1159" 
d="M698 1581q-17 0 -24 12l-135 222q-6 9 -1.5 16.5t15.5 7.5h31q17 0 24 -12l115 -187q7 -10 12 0l158 187q10 12 29 12h28q12 0 15.5 -7.5t-4.5 -16.5l-193 -222q-10 -12 -27 -12h-43zM549 -16q-213 0 -325.5 98.5t-92.5 263.5l10 72q0 9 7 14.5t16 5.5h33q18 0 18 -20
l-8 -66q-17 -133 79 -215t277 -82q174 0 277 76t118 207q8 62 -7.5 109.5t-61 91.5t-111 82.5t-172.5 89.5q-91 42 -134 64t-99.5 59.5t-79 72t-36 86t-5.5 115.5q20 165 139 253.5t316 88.5q215 0 321.5 -99t85.5 -268l-6 -49q-3 -20 -23 -20h-36q-19 0 -19 20l6 43
q18 137 -71.5 219t-270.5 82q-162 0 -256.5 -68t-109.5 -198q-16 -122 54.5 -183.5t276.5 -152.5q105 -48 173 -88t121.5 -91.5t73.5 -113.5t11 -139q-21 -164 -149 -262t-340 -98z" />
    <glyph glyph-name="scaron" unicode="&#x161;" horiz-adv-x="942" 
d="M557 1167q-20 0 -25 13l-135 221q-7 9 -2 16.5t17 7.5h28q20 0 25 -12l117 -186q7 -10 12 0l158 186q10 12 26 12h31q12 0 14.5 -7.5t-6.5 -16.5l-192 -221q-8 -13 -27 -13h-41zM440 -8q-155 0 -244 76t-75 186l4 29q0 9 6.5 14.5t15.5 5.5h35q20 0 17 -20l-2 -27
q-9 -80 60 -138.5t189 -58.5t201 58.5t92 150.5q6 45 -6.5 77.5t-56 58.5t-68.5 36.5t-95 34.5q-18 7 -28 10q-61 20 -96.5 33.5t-82.5 39t-70.5 52t-38 68t-7.5 92.5q13 121 116.5 193.5t256.5 72.5q154 0 239.5 -74.5t71.5 -189.5l-2 -6q-4 -21 -22 -21h-33
q-9 0 -14.5 4.5t-3.5 10.5l2 12q9 84 -58.5 140.5t-189.5 56.5q-119 0 -197.5 -54t-89.5 -141q-5 -36 7 -66t30 -49t57 -39t67.5 -30.5t82.5 -28.5q141 -46 193 -75q129 -72 115 -205q0 -4 -1 -9q-14 -124 -117.5 -202t-259.5 -78z" />
    <glyph glyph-name="uni0162" unicode="&#x162;" horiz-adv-x="1116" 
d="M723 1362q-8 0 -8 -8l-166 -1348q0 -6 4 -10q124 -113 78 -242q-18 -55 -61 -85t-89 -32t-92 5q-19 3 -12 24l6 17q6 20 27 16q56 -13 99.5 5t61.5 73q33 104 -86 219q0 2 -8 6q-4 2 -4 18l164 1334q0 8 -6 8h-385q-8 0 -13 5.5t-4 14.5l4 31q3 21 23 21h877q8 0 12.5 -6
t3.5 -15l-4 -31q-3 -20 -23 -20h-399z" />
    <glyph glyph-name="uni0163" unicode="&#x163;" horiz-adv-x="706" 
d="M455 0q-5 0 -5.5 -3.5t3.5 -6.5q111 -109 69 -234q-19 -55 -61.5 -85t-88 -32t-91.5 5q-19 3 -15 24l6 17q8 19 29 16q56 -13 100 5t60 73q34 105 -90 225q-1 2 -4.5 3.5t-4.5 2.5q-79 16 -115.5 73.5t-23.5 172.5l86 694q0 8 -6 8h-121q-9 0 -14 6t-4 15l4 29
q0 9 6.5 14.5t15.5 5.5h121q8 0 8 8l29 232q3 20 23 20h35q21 0 18 -20l-29 -232q0 -8 6 -8h242q19 0 16 -20l-2 -29q-1 -9 -7.5 -15t-14.5 -6h-242q-8 0 -8 -8l-84 -680q-13 -110 30.5 -153t149.5 -43h45q8 0 13 -6t4 -15l-4 -30q0 -19 -21 -23h-51h-12z" />
    <glyph glyph-name="Tcaron" unicode="&#x164;" horiz-adv-x="1116" 
d="M743 1561q-10 -13 -26 -13h-41q-20 0 -25 13l-137 219q-6 9 -1 16.5t17 7.5h29q20 0 25 -12l116 -186q2 -4 5.5 -3.5t5.5 3.5l159 186q7 12 27 12h31q10 0 13 -7.5t-5 -16.5zM1133 1434q8 0 12.5 -6t3.5 -15l-4 -31q-3 -20 -23 -20h-399q-8 0 -8 -8l-164 -1334
q-3 -20 -23 -20h-36q-9 0 -14.5 5.5t-4.5 14.5l164 1334q0 8 -6 8h-385q-8 0 -13 5.5t-4 14.5l4 31q3 21 23 21h877z" />
    <glyph glyph-name="tcaron" unicode="&#x165;" horiz-adv-x="706" 
d="M451 1415q-12 -12 -29 -12h-41q-20 0 -25 12l-135 219q-6 9 -1.5 17t16.5 8h30q18 0 23 -12l117 -187q7 -10 12 0l157 187q10 12 27 12h31q12 0 14.5 -8t-6.5 -17zM657 979q-1 -9 -7.5 -15t-14.5 -6h-242q-8 0 -8 -8l-84 -680q-13 -110 30.5 -153t149.5 -43h45q8 0 13 -6
t4 -15l-4 -30q0 -19 -21 -23h-51q-65 0 -110.5 11t-81 38.5t-48.5 79t-4 127.5l86 694q0 8 -6 8h-121q-9 0 -14 6t-4 15l4 29q0 9 6.5 14.5t15.5 5.5h121q8 0 8 8l29 232q3 20 23 20h35q21 0 18 -20l-29 -232q0 -8 6 -8h242q19 0 16 -20z" />
    <glyph glyph-name="Tbar" unicode="&#x166;" horiz-adv-x="1191" 
d="M1145 1382q-3 -20 -23 -20h-399q-8 0 -8 -8l-60 -480q0 -8 9 -8h229q18 0 18 -20l-4 -23q-3 -20 -22 -20h-230q-6 0 -10 -8l-94 -775q-3 -20 -23 -20h-36q-9 0 -14.5 5.5t-4.5 14.5l96 775q0 8 -8 8h-233q-9 0 -14.5 5.5t-4.5 14.5l4 23q0 9 6.5 14.5t14.5 5.5h235
q9 0 9 8l59 480q0 8 -6 8h-385q-8 0 -13 5.5t-4 14.5l4 31q3 21 23 21h877q8 0 12.5 -6t3.5 -15z" />
    <glyph glyph-name="tbar" unicode="&#x167;" horiz-adv-x="1191" 
d="M657 979q-1 -9 -7.5 -15t-14.5 -6h-242q-8 0 -8 -8l-29 -227q0 -8 9 -8h233q18 0 18 -21l-4 -22q0 -9 -6.5 -15t-15.5 -6h-234q-8 0 -8 -8l-47 -373q-13 -110 30.5 -153t149.5 -43h45q8 0 13 -6t4 -15l-4 -30q0 -19 -21 -23h-51q-65 0 -110.5 11t-81 38.5t-48.5 79
t-4 127.5l49 387q0 8 -8 8h-106q-19 0 -19 21l4 22q0 9 7 15t16 6h106q9 0 9 8l28 227q0 8 -6 8h-121q-9 0 -14 6t-4 15l4 29q0 9 6.5 14.5t15.5 5.5h121q8 0 8 8l29 232q3 20 23 20h35q21 0 18 -20l-29 -232q0 -8 6 -8h242q19 0 16 -20z" />
    <glyph glyph-name="Umacron" unicode="&#x16a;" horiz-adv-x="1302" 
d="M582 1661q-19 0 -19 20l4 25q3 20 23 20h471q19 0 16 -20l-2 -25q-3 -20 -22 -20h-471zM610 -16q-203 0 -312.5 122.5t-84.5 321.5l121 985q4 21 22 21h39q8 0 13 -6t4 -15l-121 -991q-20 -165 69.5 -266t257.5 -101q170 0 285 101t135 266l123 991q3 21 23 21h37
q18 0 18 -21l-121 -985q-25 -200 -164.5 -322t-343.5 -122z" />
    <glyph glyph-name="umacron" unicode="&#x16b;" 
d="M887 1296q19 0 16 -20l-2 -25q-3 -20 -22 -20h-471q-19 0 -19 20l4 25q3 20 23 20h471zM885 1008q3 20 22 20h37q19 0 19 -20l-121 -988q-1 -9 -8 -14.5t-15 -5.5h-39q-19 0 -16 20l12 109q1 4 0 5.5t-3.5 0.5t-4.5 -4q-108 -145 -307 -145q-148 0 -230.5 91.5
t-64.5 246.5l84 684q1 9 7.5 14.5t14.5 5.5h39q20 0 17 -20l-82 -666q-15 -130 49.5 -207.5t187.5 -77.5q130 0 217.5 79t102.5 206z" />
    <glyph glyph-name="Uring" unicode="&#x16e;" horiz-adv-x="1302" 
d="M809 1604q-84 0 -135 59t-41 143q10 85 76 144t149 59q85 0 136 -59t40 -144q-10 -85 -76 -143.5t-149 -58.5zM815 1659q61 0 109 42.5t55 104.5q7 63 -30 105.5t-97 42.5q-61 0 -109 -43t-55 -105q-7 -63 30 -105t97 -42zM610 -16q-203 0 -312.5 122.5t-84.5 321.5
l121 985q4 21 22 21h39q8 0 13 -6t4 -15l-121 -991q-20 -165 69.5 -266t257.5 -101q170 0 285 101t135 266l123 991q3 21 23 21h37q18 0 18 -21l-121 -985q-25 -200 -164.5 -322t-343.5 -122z" />
    <glyph glyph-name="uring" unicode="&#x16f;" 
d="M635 1174q-84 0 -135 59t-41 143q10 85 76 144t149 59q85 0 136 -59t40 -144q-10 -85 -76 -143.5t-149 -58.5zM678 1524q-61 0 -109 -43t-55 -105q-7 -63 30 -105t97 -42q61 0 109 42.5t55 104.5q7 63 -30 105.5t-97 42.5zM885 1008q3 20 22 20h37q19 0 19 -20l-121 -988
q-1 -9 -8 -14.5t-15 -5.5h-39q-19 0 -16 20l12 109q1 4 0 5.5t-3.5 0.5t-4.5 -4q-108 -145 -307 -145q-148 0 -230.5 91.5t-64.5 246.5l84 684q1 9 7.5 14.5t14.5 5.5h39q20 0 17 -20l-82 -666q-15 -130 49.5 -207.5t187.5 -77.5q130 0 217.5 79t102.5 206z" />
    <glyph glyph-name="Uhungarumlaut" unicode="&#x170;" horiz-adv-x="1302" 
d="M631 1612q-11 0 -15.5 7t2.5 17l148 228q6 14 25 14h34q11 0 14.5 -7t-3.5 -18l-152 -227q-10 -14 -25 -14h-28zM938 1612q-11 0 -14 7t4 17l149 228q6 14 25 14h33q12 0 15 -7t-5 -18l-152 -227q-14 -14 -26 -14h-29zM610 -16q-203 0 -312.5 122.5t-84.5 321.5l121 985
q4 21 22 21h39q8 0 13 -6t4 -15l-121 -991q-20 -165 69.5 -266t257.5 -101q170 0 285 101t135 266l123 991q3 21 23 21h37q18 0 18 -21l-121 -985q-25 -200 -164.5 -322t-343.5 -122z" />
    <glyph glyph-name="uhungarumlaut" unicode="&#x171;" 
d="M651 1448q11 0 14.5 -7t-3.5 -18l-152 -227q-10 -14 -25 -14h-28q-11 0 -15.5 7t2.5 17l148 228q6 14 24 14h35zM961 1448q12 0 15 -7t-5 -18l-152 -227q-14 -14 -26 -14h-29q-11 0 -14 7t4 17l149 228q8 14 25 14h33zM885 1008q3 20 22 20h37q19 0 19 -20l-121 -988
q-1 -9 -8 -14.5t-15 -5.5h-39q-19 0 -16 20l12 109q1 4 0 5.5t-3.5 0.5t-4.5 -4q-108 -145 -307 -145q-148 0 -230.5 91.5t-64.5 246.5l84 684q1 9 7.5 14.5t14.5 5.5h39q20 0 17 -20l-82 -666q-15 -130 49.5 -207.5t187.5 -77.5q130 0 217.5 79t102.5 206z" />
    <glyph glyph-name="Uogonek" unicode="&#x172;" horiz-adv-x="1302" 
d="M1161 1413q3 21 23 21h37q18 0 18 -21l-121 -985q-25 -193 -156 -314t-325 -130q-6 0 -10 -4q-125 -108 -117 -203q3 -54 43 -72.5t98 -5.5q21 3 21 -16l2 -17q3 -21 -17 -24q-49 -7 -94 -5t-80 32t-41 85q-7 122 113 223q11 8 -2 11q-178 17 -270.5 136t-69.5 304
l121 985q4 21 22 21h39q8 0 13 -6t4 -15l-121 -991q-20 -165 69.5 -266t257.5 -101q170 0 285 101t135 266z" />
    <glyph glyph-name="uogonek" unicode="&#x173;" horiz-adv-x="1062" 
d="M823 -311q23 3 23 -17l2 -16q3 -22 -17 -25q-34 -9 -70.5 -6.5t-67 12.5t-52 37.5t-25.5 69.5q-10 137 152 252q4 2 0 6q-7 7 -4 18l12 109q1 4 0 5.5t-3.5 0.5t-4.5 -4q-108 -145 -307 -145q-148 0 -230.5 91.5t-64.5 246.5l84 684q1 9 7.5 14.5t14.5 5.5h39
q20 0 17 -20l-82 -666q-15 -130 49.5 -207.5t187.5 -77.5q130 0 217.5 79t102.5 206l82 666q3 20 22 20h37q19 0 19 -20l-123 -992q0 -11 -15 -26q-65 -49 -105.5 -107.5t-37.5 -115.5q4 -54 44 -72.5t97 -5.5z" />
    <glyph glyph-name="Wcircumflex" unicode="&#x174;" horiz-adv-x="1742" 
d="M821 1573q-12 0 -15 7.5t5 16.5l193 222q10 12 28 12h41q20 0 25 -12l137 -222q6 -9 2 -16.5t-16 -7.5h-31q-18 0 -25 12l-112 187q-2 3 -6 3.5t-7 -3.5l-161 -187q-10 -12 -29 -12h-29zM432 0q-15 0 -18 16l-224 1395q-1 10 5.5 16.5t15.5 6.5h39q13 0 20 -17l199 -1249
q1 -4 5 -4t5 4l477 1247q8 19 25 19h41q16 0 20 -19l181 -1247q3 -10 10 0l508 1249q10 17 24 17h37q11 0 16 -6.5t1 -16.5l-570 -1395q-6 -16 -24 -16h-41q-19 0 -19 18l-176 1266q0 3 -1.5 4t-3.5 0t-3 -4l-483 -1266q-7 -18 -25 -18h-41z" />
    <glyph glyph-name="wcircumflex" unicode="&#x175;" horiz-adv-x="1374" 
d="M586 1167q-11 0 -14 8t6 17l192 221q7 12 27 12h41q19 0 24 -12l139 -221q6 -9 1 -17t-17 -8h-29q-19 0 -24 13l-115 186q-4 8 -12 0l-162 -186q-8 -13 -27 -13h-30zM334 0q-15 0 -21 16l-155 990q-3 22 20 22h35q20 0 20 -16l132 -891q1 -5 5 -5t7 5l352 891q3 16 23 16
h41q15 0 18 -16l135 -889q2 -5 6 -5t6 5l353 889q6 16 22 16h39q23 0 14 -22l-403 -990q-6 -16 -22 -16h-43q-15 0 -21 16l-137 861q-2 5 -6 5t-6 -5l-347 -861q-10 -16 -24 -16h-43z" />
    <glyph glyph-name="Ycircumflex" unicode="&#x176;" horiz-adv-x="1081" 
d="M494 1571q-12 0 -15.5 7.5t4.5 16.5l193 222q10 12 26 12h43q18 0 25 -12l137 -222q6 -9 1.5 -16.5t-15.5 -7.5h-31q-19 0 -24 12l-115 186q0 2 -1.5 3t-4 0.5t-4.5 -3.5l-162 -186q-10 -12 -29 -12h-28zM483 0q-18 0 -18 20l80 648v10l-326 731q-5 11 0 18t17 7h36
q16 0 23 -15l293 -657q2 -3 6 -3t6 3l455 657q11 15 24 15h39q11 0 14 -7t-4 -18l-505 -731q-2 -2 -2 -10l-80 -648q-3 -20 -23 -20h-35z" />
    <glyph glyph-name="ycircumflex" unicode="&#x177;" horiz-adv-x="876" 
d="M340 1169q-12 0 -14.5 8t6.5 17l192 221q7 12 27 12h41q19 0 24 -12l138 -221q7 -9 2 -17t-17 -8h-28q-20 0 -25 13l-115 186q-5 10 -12 0l-162 -186q-8 -13 -26 -13h-31zM31 -410q-6 0 -9 6t-2 15l3 31q3 20 18 20h12q47 1 79 10.5t58 27.5t53.5 61.5t51.5 92t65 140.5
q5 9 2 12l-221 1000q-3 22 19 22h39q17 0 20 -16l191 -893q2 -5 6 -5t6 5l401 893q10 16 27 16h37q20 0 14 -22l-518 -1121q-45 -98 -79 -153.5t-73.5 -88.5t-80 -43t-105.5 -10h-14z" />
    <glyph glyph-name="Ydieresis" unicode="&#x178;" horiz-adv-x="1081" 
d="M549 1659q-32 0 -51 21t-15 53q3 29 27.5 50t56.5 21q29 0 47 -21t15 -50q-5 -32 -27 -53t-53 -21zM862 1659q-32 0 -50.5 21t-14.5 53q3 29 27 50t55 21t48.5 -20.5t14.5 -50.5q-5 -32 -27 -53t-53 -21zM483 0q-18 0 -18 20l80 648v10l-326 731q-5 11 0 18t17 7h36
q16 0 23 -15l293 -657q2 -3 6 -3t6 3l455 657q11 15 24 15h39q11 0 14 -7t-4 -18l-505 -731q-2 -2 -2 -10l-80 -648q-3 -20 -23 -20h-35z" />
    <glyph glyph-name="Zacute" unicode="&#x179;" horiz-adv-x="1083" 
d="M637 1618q-11 0 -14 7t4 17l149 228q6 14 25 14h39q12 0 15 -7t-5 -17l-160 -228q-10 -14 -24 -14h-29zM82 0q-19 0 -19 20l7 39q0 7 10 27l919 1266q3 3 1.5 6.5t-5.5 3.5h-747q-8 0 -13 5.5t-4 14.5l5 31q4 21 22 21h823q19 0 19 -21l-6 -39q0 -4 -11 -26l-919 -1266
q-3 -3 -1.5 -6.5t5.5 -3.5h747q8 0 13 -6t4 -15l-4 -31q0 -9 -7 -14.5t-16 -5.5h-823z" />
    <glyph glyph-name="zacute" unicode="&#x17a;" horiz-adv-x="872" 
d="M496 1204q-12 0 -15 7t4 18l148 227q8 14 26 14h37q12 0 15.5 -7t-2.5 -17l-160 -227q-11 -15 -25 -15h-28zM55 0q-19 0 -16 20l4 39q4 19 10 27l721 858q3 3 1.5 6.5t-5.5 3.5h-592q-20 0 -16 21l4 33q3 20 22 20h674q8 0 13 -5.5t4 -14.5l-5 -39q-4 -19 -12 -27
l-723 -858q-3 -3 -2 -6.5t4 -3.5h598q9 0 14.5 -6t4.5 -15l-4 -33q-3 -20 -23 -20h-676z" />
    <glyph glyph-name="Zdotaccent" unicode="&#x17b;" horiz-adv-x="1083" 
d="M686 1651q-32 0 -50 20t-15 51q3 29 26.5 49.5t54.5 20.5q30 0 47.5 -20t14.5 -50q-4 -31 -26.5 -51t-51.5 -20zM82 0q-19 0 -19 20l7 39q0 7 10 27l919 1266q3 3 1.5 6.5t-5.5 3.5h-747q-8 0 -13 5.5t-4 14.5l5 31q4 21 22 21h823q19 0 19 -21l-6 -39q0 -4 -11 -26
l-919 -1266q-3 -3 -1.5 -6.5t5.5 -3.5h747q8 0 13 -6t4 -15l-4 -31q0 -9 -7 -14.5t-16 -5.5h-823z" />
    <glyph glyph-name="zdotaccent" unicode="&#x17c;" horiz-adv-x="872" 
d="M543 1237q-31 0 -49.5 20.5t-14.5 51.5q3 29 26.5 49t55.5 20q29 0 46.5 -20t13.5 -49q-3 -31 -25 -51.5t-53 -20.5zM55 0q-19 0 -16 20l4 39q4 19 10 27l721 858q3 3 1.5 6.5t-5.5 3.5h-592q-20 0 -16 21l4 33q3 20 22 20h674q8 0 13 -5.5t4 -14.5l-5 -39
q-4 -19 -12 -27l-723 -858q-3 -3 -2 -6.5t4 -3.5h598q9 0 14.5 -6t4.5 -15l-4 -33q-3 -20 -23 -20h-676z" />
    <glyph glyph-name="Zcaron" unicode="&#x17d;" horiz-adv-x="1083" 
d="M653 1591q-17 0 -22 13l-137 221q-6 9 -1 16.5t17 7.5h29q19 0 24 -12l117 -186q3 -9 12 0l158 186q7 12 27 12h30q11 0 14 -7.5t-6 -16.5l-192 -221q-8 -13 -27 -13h-43zM82 0q-19 0 -19 20l7 39q0 7 10 27l919 1266q3 3 1.5 6.5t-5.5 3.5h-747q-8 0 -13 5.5t-4 14.5
l5 31q4 21 22 21h823q19 0 19 -21l-6 -39q0 -4 -11 -26l-919 -1266q-3 -3 -1.5 -6.5t5.5 -3.5h747q8 0 13 -6t4 -15l-4 -31q0 -9 -7 -14.5t-16 -5.5h-823z" />
    <glyph glyph-name="zcaron" unicode="&#x17e;" horiz-adv-x="872" 
d="M512 1178q-20 0 -25 12l-135 221q-6 9 -1.5 17t16.5 8h30q17 0 25 -13l115 -186q7 -10 12 0l158 186q10 13 28 13h29q12 0 15 -8t-5 -17l-192 -221q-10 -12 -29 -12h-41zM55 0q-19 0 -16 20l4 39q4 19 10 27l721 858q3 3 1.5 6.5t-5.5 3.5h-592q-20 0 -16 21l4 33
q3 20 22 20h674q8 0 13 -5.5t4 -14.5l-5 -39q-4 -19 -12 -27l-723 -858q-3 -3 -2 -6.5t4 -3.5h598q9 0 14.5 -6t4.5 -15l-4 -33q-3 -20 -23 -20h-676z" />
    <glyph glyph-name="florin" unicode="&#x192;" horiz-adv-x="1081" 
d="M680 1102q28 102 60.5 164t83 100t115 52t165.5 16q20 0 16 -21l-2 -31q-1 -9 -7.5 -14.5t-14.5 -5.5h-56q-125 0 -186.5 -62.5t-97.5 -199.5l-86 -309q-3 -9 4 -9h203q18 0 18 -20l-4 -33q-3 -20 -23 -20h-213q-10 0 -10 -9l-215 -778q-29 -102 -62 -164.5t-84 -100
t-114.5 -51.5t-163.5 -16q-9 0 -14 6t-4 15l4 31q3 20 22 20h54q65 0 111.5 16.5t79.5 52t54 80.5t41 113l215 776q0 9 -6 9h-157q-9 0 -14.5 5.5t-4.5 14.5l4 33q3 20 23 20h170q10 0 10 9z" />
    <glyph glyph-name="uni01CD" unicode="&#x1cd;" horiz-adv-x="1148" 
d="M768 1561q-13 -13 -27 -13h-43q-16 0 -24 13l-135 219q-6 9 -2 16.5t16 7.5h31q17 0 24 -12l115 -186q7 -10 12 0l158 186q10 12 29 12h28q12 0 15.5 -7.5t-4.5 -16.5zM973 0q-18 0 -21 16l-55 283q-2 6 -8 6h-639q-6 0 -8 -6l-123 -283q-6 -16 -25 -16h-39q-22 0 -12 23
l614 1394q7 17 25 17h53q6 0 13 -5t8 -12l276 -1394q3 -23 -18 -23h-41zM276 383q-2 -3 1.5 -6.5t7.5 -3.5h589q4 0 7.5 3.5t1.5 6.5l-183 938q-2 5 -5.5 5t-6.5 -5z" />
    <glyph glyph-name="uni01CE" unicode="&#x1ce;" 
d="M676 1155q-9 -12 -27 -12h-43q-17 0 -22 12l-138 219q-6 9 -1 17t16 8h31q19 0 24 -13l117 -186q2 -4 5 -3.5t5 3.5l160 186q8 13 26 13h29q12 0 15 -8t-5 -17zM885 1008q3 20 22 20h37q19 0 19 -20l-121 -988q-1 -9 -8 -14.5t-15 -5.5h-39q-19 0 -16 20l14 115
q0 4 -1.5 5.5t-4 0.5t-4.5 -4q-52 -72 -129 -112.5t-168 -40.5q-134 0 -218.5 74t-98.5 196q-9 74 14 258q24 193 47 260q45 124 147 198t238 74q92 0 158.5 -40.5t101.5 -112.5q2 -3 4.5 -4t4 0.5t1.5 5.5zM776 274q15 35 23.5 79t21.5 159q15 122 17 166.5t-4 77.5
q-6 95 -68 156t-166 61q-106 0 -189 -60.5t-116 -154.5q-16 -39 -25.5 -84t-23.5 -158q-14 -115 -16 -164.5t3 -77.5q6 -96 75 -157.5t177 -61.5q107 0 183.5 62t107.5 157z" />
    <glyph glyph-name="uni0218" unicode="&#x218;" horiz-adv-x="1159" 
d="M549 -16q-213 0 -325.5 98.5t-92.5 263.5l10 72q0 9 7 14.5t16 5.5h33q18 0 18 -20l-8 -66q-17 -133 79 -215t277 -82q174 0 277 76t118 207q8 62 -7.5 109.5t-61 91.5t-111 82.5t-172.5 89.5q-91 42 -134 64t-99.5 59.5t-79 72t-36 86t-5.5 115.5q20 165 139 253.5
t316 88.5q215 0 321.5 -99t85.5 -268l-6 -49q-3 -20 -23 -20h-36q-19 0 -19 20l6 43q18 137 -71.5 219t-270.5 82q-162 0 -256.5 -68t-109.5 -198q-16 -122 54.5 -183.5t276.5 -152.5q105 -48 173 -88t121.5 -91.5t73.5 -113.5t11 -139q-21 -164 -149 -262t-340 -98z
M397 -403q-12 0 -15 6.5t5 17.5l150 227q6 15 24 15h37q12 0 15.5 -7.5t-3.5 -17.5l-159 -227q-11 -14 -25 -14h-29z" />
    <glyph glyph-name="uni0219" unicode="&#x219;" horiz-adv-x="942" 
d="M440 -8q-155 0 -244 76t-75 186l4 29q0 9 6.5 14.5t15.5 5.5h35q20 0 17 -20l-2 -27q-9 -80 60 -138.5t189 -58.5t201 58.5t92 150.5q6 45 -6.5 77.5t-56 58.5t-68.5 36.5t-95 34.5q-18 7 -28 10q-61 20 -96.5 33.5t-82.5 39t-70.5 52t-38 68t-7.5 92.5
q13 121 116.5 193.5t256.5 72.5q154 0 239.5 -74.5t71.5 -189.5l-2 -6q-4 -21 -22 -21h-33q-9 0 -14.5 4.5t-3.5 10.5l2 12q9 84 -58.5 140.5t-189.5 56.5q-119 0 -197.5 -54t-89.5 -141q-5 -36 7 -66t30 -49t57 -39t67.5 -30.5t82.5 -28.5q141 -46 193 -75
q129 -72 115 -205q0 -4 -1 -9q-14 -124 -117.5 -202t-259.5 -78zM301 -395q-12 0 -15 6.5t5 17.5l149 228q6 14 25 14h37q12 0 15 -7.5t-3 -17.5l-160 -227q-10 -14 -24 -14h-29z" />
    <glyph glyph-name="uni021A" unicode="&#x21a;" horiz-adv-x="1120" 
d="M233 1413q3 21 23 21h877q8 0 12.5 -6t3.5 -15l-4 -31q-3 -20 -23 -20h-399q-8 0 -8 -8l-164 -1334q-3 -20 -23 -20h-36q-9 0 -14.5 5.5t-4.5 14.5l164 1334q0 8 -6 8h-385q-8 0 -13 5.5t-4 14.5zM305 -387q-11 0 -14 7.5t4 17.5l149 227q6 14 25 14h39q12 0 15 -6.5
t-5 -17.5l-158 -228q-14 -14 -26 -14h-29z" />
    <glyph glyph-name="uni021B" unicode="&#x21b;" horiz-adv-x="706" 
d="M657 979q-1 -9 -7.5 -15t-14.5 -6h-242q-8 0 -8 -8l-84 -680q-13 -110 30.5 -153t149.5 -43h45q8 0 13 -6t4 -15l-4 -30q0 -19 -21 -23h-51q-65 0 -110.5 11t-81 38.5t-48.5 79t-4 127.5l86 694q0 8 -6 8h-121q-9 0 -14 6t-4 15l4 29q0 9 6.5 14.5t15.5 5.5h121q8 0 8 8
l29 232q3 20 23 20h35q21 0 18 -20l-29 -232q0 -8 6 -8h242q19 0 16 -20zM270 -385q-12 0 -15 7.5t5 17.5l150 227q6 14 24 14h39q11 0 14 -6.5t-4 -17.5l-159 -228q-10 -14 -25 -14h-29z" />
    <glyph glyph-name="uni0228" unicode="&#x228;" horiz-adv-x="1222" 
d="M1219 1382q-3 -20 -23 -20h-766q-6 0 -10 -8l-72 -590q0 -8 6 -8h549q19 0 19 -21l-4 -33q-1 -9 -8 -14.5t-15 -5.5h-549q-8 0 -8 -8l-74 -594q0 -8 6 -8h768q20 0 17 -21l-4 -31q0 -9 -7 -14.5t-16 -5.5h-373q-5 0 -6.5 -3.5t2.5 -6.5q115 -109 72 -236
q-19 -55 -61.5 -85t-88.5 -32t-92 5q-18 3 -14 24l6 17q8 19 27 16q56 -13 100 5t62 73q35 104 -84 219q-2 4 -11 4h-370q-20 0 -17 20l170 1393q4 21 23 21h831q9 0 14.5 -6t4.5 -15z" />
    <glyph glyph-name="uni0229" unicode="&#x229;" horiz-adv-x="1048" 
d="M500 55q103 0 183 49.5t124 133.5q9 18 27 12l24 -8q19 -6 10 -27q-48 -97 -139 -159t-207 -72q-13 0 -4 -9q118 -110 76 -237q-15 -42 -43 -69.5t-61 -37.5t-69.5 -12.5t-68.5 6.5q-18 3 -14 25l6 16q9 20 27 17q56 -13 99.5 4.5t61.5 72.5q35 105 -86 222q-2 4 -8 4
q-115 13 -186.5 83t-89.5 179q-11 74 10 268q22 180 47 252q45 125 150.5 200.5t244.5 75.5q148 0 235.5 -80t96.5 -216q4 -60 -16 -232q-3 -22 -23 -22h-651q-7 0 -10 -9q-18 -169 -15 -196q8 -106 79 -170t190 -64zM606 973q-117 0 -201 -63.5t-116 -166.5
q-17 -56 -33 -176q0 -8 8 -8h586q8 0 8 8q15 131 12 172q-9 105 -78.5 169.5t-185.5 64.5z" />
    <glyph glyph-name="circumflex" unicode="&#x2c6;" horiz-adv-x="458" 
d="M133 1167q-12 0 -14.5 8t6.5 17l192 221q7 12 27 12h41q20 0 25 -12l137 -221q7 -9 2 -17t-17 -8h-28q-20 0 -25 13l-114 186q-2 3 -6 3.5t-7 -3.5l-162 -186q-8 -13 -26 -13h-31z" />
    <glyph glyph-name="caron" unicode="&#x2c7;" horiz-adv-x="589" 
d="M377 1165q-17 0 -25 13l-135 221q-6 9 -1.5 16.5t15.5 7.5h31q20 0 25 -12l116 -186q2 -4 5.5 -3.5t5.5 3.5l159 186q7 12 27 12h29q12 0 15 -7.5t-5 -16.5l-193 -221q-8 -13 -26 -13h-43z" />
    <glyph glyph-name="uni02C9" unicode="&#x2c9;" horiz-adv-x="509" 
d="M131 1231q-19 0 -16 20l2 25q3 20 22 20h471q20 0 17 -20l-2 -25q-3 -20 -23 -20h-471z" />
    <glyph glyph-name="breve" unicode="&#x2d8;" horiz-adv-x="542" 
d="M373 1151q-79 0 -130 53t-48 131q-1 9 5 15t15 6h16q22 0 19 -21q2 -56 38 -92.5t91 -36.5q56 0 102 37t58 92q6 21 24 21h19q20 0 16 -21q-17 -78 -82 -131t-143 -53z" />
    <glyph glyph-name="dotaccent" unicode="&#x2d9;" horiz-adv-x="276" 
d="M252 1219q-32 0 -51 20t-15 51q3 29 27 49.5t55 20.5q29 0 47 -20.5t15 -49.5q-4 -31 -26.5 -51t-51.5 -20z" />
    <glyph glyph-name="ring" unicode="&#x2da;" horiz-adv-x="534" 
d="M371 1174q-84 0 -135 59t-41 143q10 85 76 144t149 59q85 0 136 -59t40 -144q-10 -85 -76 -143.5t-149 -58.5zM377 1229q61 0 109 42.5t55 104.5q7 63 -30 105.5t-97 42.5q-61 0 -109 -43t-55 -105q-7 -63 30 -105t97 -42z" />
    <glyph glyph-name="ogonek" unicode="&#x2db;" horiz-adv-x="251" 
d="M166 -344q0 -22 -19 -25q-34 -9 -70.5 -6.5t-67 12.5t-52 37.5t-25.5 69.5q-10 134 146 248q13 8 26 8h13q14 0 16 -8t-10 -17q-131 -110 -123 -208q3 -55 42.5 -73t98.5 -5q20 3 23 -17z" />
    <glyph glyph-name="tilde" unicode="&#x2dc;" horiz-adv-x="671" 
d="M555 1229q-55 0 -113 49q-17 14 -22.5 18t-18.5 12t-24 10.5t-25 2.5q-33 0 -57.5 -11t-54.5 -46q-14 -17 -27 -7l-14 11q-11 11 -2 28q70 90 161 90q23 0 45.5 -8.5t32.5 -15t35 -23.5q57 -45 92 -45q64 0 115 64q10 16 27 6l10 -6q19 -11 -2 -41q-35 -46 -78 -67
t-80 -21z" />
    <glyph glyph-name="hungarumlaut" unicode="&#x2dd;" horiz-adv-x="667" 
d="M201 1202q-11 0 -14.5 7t3.5 18l150 227q6 14 25 14h38q11 0 14.5 -7t-3.5 -17l-160 -227q-11 -15 -25 -15h-28zM514 1202q-12 0 -15.5 7t3.5 18l149 227q8 14 27 14h37q12 0 15 -7t-5 -17l-158 -227q-15 -15 -26 -15h-27z" />
    <glyph glyph-name="gravecomb" unicode="&#x300;" horiz-adv-x="0" 
d="M94 1210q4 -10 -0.5 -17t-15.5 -7h-29q-11 0 -22 14l-103 227q-5 11 0 18t17 7h39q17 0 20 -14z" />
    <glyph glyph-name="acutecomb" unicode="&#x301;" horiz-adv-x="0" 
d="M-221 1186q-12 0 -15 7t3 17l149 228q8 14 27 14h37q12 0 15 -7t-5 -18l-158 -227q-14 -14 -27 -14h-26z" />
    <glyph glyph-name="uni0302" unicode="&#x302;" horiz-adv-x="0" 
d="M-326 1167q-12 0 -14.5 8t6.5 17l193 221q7 12 26 12h41q20 0 25 -12l137 -221q7 -9 2.5 -17t-16.5 -8h-29q-20 0 -25 13l-114 186q-5 10 -12 0l-162 -186q-8 -13 -27 -13h-31z" />
    <glyph glyph-name="tildecomb" unicode="&#x303;" horiz-adv-x="0" 
d="M-55 1229q-55 0 -113 49q-17 14 -22.5 18t-18.5 12t-24 10.5t-25 2.5q-34 0 -58.5 -11t-54.5 -46q-13 -17 -28 -7l-13 11q-12 12 -2 28q70 90 162 90q23 0 45.5 -8.5t32.5 -15t35 -23.5q57 -45 90 -45q63 0 117 64q10 16 26 6l10 -6q19 -11 -2 -41q-35 -46 -77.5 -67
t-79.5 -21z" />
    <glyph glyph-name="uni0304" unicode="&#x304;" horiz-adv-x="0" 
d="M-379 1231q-19 0 -16 20l2 25q3 20 22 20h471q20 0 17 -20l-2 -25q-3 -20 -23 -20h-471z" />
    <glyph glyph-name="uni0306" unicode="&#x306;" horiz-adv-x="0" 
d="M-176 1114q-79 0 -129.5 52.5t-48.5 131.5q0 9 6 15t14 6h19q18 0 18 -21q0 -56 36.5 -92.5t92.5 -36.5q54 0 100.5 37t59.5 92q6 21 24 21h19q19 0 16 -21q-17 -78 -82.5 -131t-144.5 -53z" />
    <glyph glyph-name="uni0307" unicode="&#x307;" horiz-adv-x="0" 
d="M41 1219q-32 0 -51 20t-15 51q3 29 27 49.5t55 20.5q29 0 47 -20.5t15 -49.5q-4 -31 -26.5 -51t-51.5 -20z" />
    <glyph glyph-name="uni0308" unicode="&#x308;" horiz-adv-x="0" 
d="M-268 1255q-33 0 -52 20.5t-16 53.5q5 30 28.5 51t55.5 21q30 0 47.5 -21t14.5 -51q-3 -32 -25.5 -53t-52.5 -21zM43 1255q-31 0 -49 21t-14 53q3 30 26 51t55 21q31 0 49 -21.5t13 -50.5q-3 -32 -26 -53t-54 -21z" />
    <glyph glyph-name="uni030A" unicode="&#x30a;" horiz-adv-x="0" 
d="M-94 1174q-84 0 -135 59t-41 143q10 85 76 144t149 59q85 0 136 -59t40 -144q-10 -85 -76 -143.5t-149 -58.5zM-88 1229q61 0 109 42.5t55 104.5q7 63 -30 105.5t-97 42.5q-61 0 -109 -43t-55 -105q-7 -63 30 -105t97 -42z" />
    <glyph glyph-name="uni030B" unicode="&#x30b;" horiz-adv-x="0" 
d="M-461 1182q-11 0 -15 7t3 17l147 228q6 14 25 14h35q11 0 14 -7t-4 -18l-152 -227q-10 -14 -24 -14h-29zM-154 1182q-11 0 -14 7t4 17l150 228q6 14 24 14h33q12 0 15 -7t-5 -18l-153 -227q-10 -14 -25 -14h-29z" />
    <glyph glyph-name="uni030C" unicode="&#x30c;" horiz-adv-x="0" 
d="M-215 1149q-18 0 -25 12l-135 219q-6 9 -1 17t16 8h30q18 0 25 -12l117 -187q2 -4 5 -3.5t5 3.5l158 187q10 12 28 12h29q12 0 15 -8t-5 -17l-192 -219q-9 -12 -27 -12h-43z" />
    <glyph glyph-name="uni0312" unicode="&#x312;" horiz-adv-x="0" 
d="M41 1417q11 0 14 -6.5t-4 -17.5l-149 -228q-6 -14 -25 -14h-39q-12 0 -15 7.5t5 17.5l158 227q14 14 26 14h29z" />
    <glyph glyph-name="uni0313" unicode="&#x313;" horiz-adv-x="0" 
d="M-92 1186q-11 0 -14 7t4 17l149 228q6 14 25 14h39q11 0 14 -7t-4 -18l-160 -227q-11 -14 -24 -14h-29z" />
    <glyph glyph-name="uni0326" unicode="&#x326;" horiz-adv-x="0" 
d="M-352 -387q-12 0 -15 7.5t5 17.5l147 227q8 14 27 14h36q12 0 15.5 -6.5t-2.5 -17.5l-160 -228q-11 -14 -25 -14h-28z" />
    <glyph glyph-name="uni0327" unicode="&#x327;" horiz-adv-x="0" 
d="M-317 -369q-20 3 -13 25l6 16q9 20 27 17q56 -13 100 5t62 73q29 97 -74 208q-9 9 -7.5 17t13.5 8h19q16 0 24 -8q128 -114 86 -248q-19 -55 -62 -85.5t-89 -32.5t-92 5z" />
    <glyph glyph-name="uni0328" unicode="&#x328;" horiz-adv-x="0" 
d="M-86 -344q0 -22 -18 -25q-34 -9 -70.5 -6.5t-67 12.5t-52 37.5t-25.5 69.5q-10 135 145 248q13 8 27 8h12q14 0 16 -8t-10 -17q-131 -110 -123 -208q3 -55 42.5 -73t98.5 -5q20 3 23 -17z" />
    <glyph glyph-name="uni0335" unicode="&#x335;" horiz-adv-x="0" 
d="M-487 1229q3 20 22 20h559q20 0 17 -20l-2 -23q-3 -20 -23 -20h-559q-8 0 -12.5 5.5t-3.5 14.5z" />
    <glyph glyph-name="uni0336" unicode="&#x336;" horiz-adv-x="0" 
d="M-1028 1061q-19 0 -19 20l5 25q3 20 22 20h1098q18 0 18 -20l-4 -25q0 -9 -6.5 -14.5t-15.5 -5.5h-1098z" />
    <glyph glyph-name="uni0337" unicode="&#x337;" horiz-adv-x="0" 
d="M-764 145q-18 -14 -27 5l-12 22q-11 16 6 29l920 618q17 13 27 -4l14 -24q9 -18 -8 -29z" />
    <glyph glyph-name="uni0338" unicode="&#x338;" horiz-adv-x="0" 
d="M-780 -68q-11 0 -15 7t2 18l859 1544q8 17 24 17h31q9 0 13.5 -7t-1.5 -18l-860 -1544q-6 -17 -23 -17h-30z" />
    <glyph glyph-name="uni0394" unicode="&#x394;" horiz-adv-x="1247" 
d="M51 0q-19 0 -16 20l4 39q0 1 2 10t4 15l672 1333q6 17 22 17h39q15 0 21 -17l344 -1335q3 -14 0 -25l-4 -37q-3 -20 -23 -20h-1065zM121 82q-2 -3 0 -6.5t6 -3.5h930q4 0 7 3.5t1 6.5l-313 1237q0 6 -5 6t-8 -6z" />
    <glyph glyph-name="uni03A9" unicode="&#x3a9;" horiz-adv-x="1280" 
d="M147 0q-18 0 -18 20l4 31q3 21 23 21h198q6 0 7.5 3.5t-3.5 6.5q-88 54 -128 152.5t-25 226.5l65 530q26 206 165.5 332.5t340.5 126.5q204 0 313.5 -126.5t84.5 -332.5l-66 -530q-17 -128 -81.5 -226.5t-164.5 -152.5q-4 -2 -5 -4.5t0.5 -4t4.5 -1.5h201q9 0 14 -6
t4 -15l-4 -31q-3 -20 -22 -20h-340q-20 0 -17 20l4 35q3 18 21 21q104 23 195.5 128t109.5 249l68 542q22 172 -68.5 277.5t-259.5 105.5q-167 0 -282.5 -105.5t-137.5 -277.5l-65 -542q-19 -145 46.5 -249t162.5 -126q16 -5 16 -23l-4 -35q-3 -20 -23 -20h-334z" />
    <glyph glyph-name="uni03BC" unicode="&#x3bc;" horiz-adv-x="1079" 
d="M901 1008q0 9 7 14.5t16 5.5h37q18 0 18 -20l-123 -988q0 -9 -6.5 -14.5t-15.5 -5.5h-37q-19 0 -19 20l15 109q0 4 -1.5 5.5t-3.5 0.5t-4 -4q-108 -145 -307 -145q-156 0 -235 98q-10 6 -13 -4l-57 -469q0 -9 -6.5 -15t-15.5 -6h-37q-9 0 -14 6t-3 15l170 1397
q3 20 23 20h39q8 0 12.5 -5.5t3.5 -14.5l-82 -666q-15 -131 49.5 -208t188.5 -77q128 0 216 79t103 206z" />
    <glyph glyph-name="pi" unicode="&#x3c0;" horiz-adv-x="1267" 
d="M1260 979q0 -9 -6.5 -15t-14.5 -6h-152q-6 0 -10 -8l-82 -676q-13 -114 11 -155.5t102 -44.5q20 0 16 -21l-4 -30q0 -9 -6.5 -15t-15.5 -6q-51 2 -85.5 12.5t-61.5 37t-36 77t0 125.5l86 696q0 8 -8 8h-544q-2 0 -5.5 -2.5t-3.5 -5.5l-114 -930q0 -9 -7 -14.5t-16 -5.5
h-37q-19 0 -16 20l112 930q0 8 -6 8h-172q-8 0 -12.5 6t-3.5 15l4 29q0 9 7 14.5t16 5.5h1052q20 0 17 -20z" />
    <glyph glyph-name="Wgrave" unicode="&#x1e80;" horiz-adv-x="1742" 
d="M1042 1616q5 -10 0.5 -17.5t-16.5 -7.5h-29q-13 0 -20 15l-105 227q-4 10 1 17.5t16 7.5h39q16 0 22 -15zM432 0q-15 0 -18 16l-224 1395q-1 10 5.5 16.5t15.5 6.5h39q13 0 20 -17l199 -1249q1 -4 5 -4t5 4l477 1247q8 19 25 19h41q16 0 20 -19l181 -1247q3 -10 10 0
l508 1249q10 17 24 17h37q11 0 16 -6.5t1 -16.5l-570 -1395q-6 -16 -24 -16h-41q-19 0 -19 18l-176 1266q0 3 -1.5 4t-3.5 0t-3 -4l-483 -1266q-7 -18 -25 -18h-41z" />
    <glyph glyph-name="wgrave" unicode="&#x1e81;" horiz-adv-x="1374" 
d="M809 1210q4 -10 -1 -17t-17 -7h-27q-16 0 -23 14l-102 227q-5 11 -0.5 18t16.5 7h37q20 0 23 -14zM334 0q-15 0 -21 16l-155 990q-3 22 20 22h35q20 0 20 -16l132 -891q1 -5 5 -5t7 5l352 891q3 16 23 16h41q15 0 18 -16l135 -889q2 -5 6 -5t6 5l353 889q6 16 22 16h39
q23 0 14 -22l-403 -990q-6 -16 -22 -16h-43q-15 0 -21 16l-137 861q-2 5 -6 5t-6 -5l-347 -861q-10 -16 -24 -16h-43z" />
    <glyph glyph-name="Wacute" unicode="&#x1e82;" horiz-adv-x="1742" 
d="M981 1591q-12 0 -15.5 7.5t3.5 17.5l149 227q9 15 27 15h37q12 0 15 -7t-5 -18l-158 -227q-15 -15 -26 -15h-27zM432 0q-15 0 -18 16l-224 1395q-1 10 5.5 16.5t15.5 6.5h39q13 0 20 -17l199 -1249q1 -4 5 -4t5 4l477 1247q8 19 25 19h41q16 0 20 -19l181 -1247
q3 -10 10 0l508 1249q10 17 24 17h37q11 0 16 -6.5t1 -16.5l-570 -1395q-6 -16 -24 -16h-41q-19 0 -19 18l-176 1266q0 3 -1.5 4t-3.5 0t-3 -4l-483 -1266q-7 -18 -25 -18h-41z" />
    <glyph glyph-name="wacute" unicode="&#x1e83;" horiz-adv-x="1374" 
d="M745 1186q-12 0 -15 7t5 17l150 228q6 14 24 14h37q12 0 15.5 -7t-3.5 -18l-159 -227q-11 -14 -25 -14h-29zM334 0q-15 0 -21 16l-155 990q-3 22 20 22h35q20 0 20 -16l132 -891q1 -5 5 -5t7 5l352 891q3 16 23 16h41q15 0 18 -16l135 -889q2 -5 6 -5t6 5l353 889
q6 16 22 16h39q23 0 14 -22l-403 -990q-6 -16 -22 -16h-43q-15 0 -21 16l-137 861q-2 5 -6 5t-6 -5l-347 -861q-10 -16 -24 -16h-43z" />
    <glyph glyph-name="Wdieresis" unicode="&#x1e84;" horiz-adv-x="1742" 
d="M877 1661q-32 0 -51 21t-15 53q3 29 27.5 50t56.5 21q30 0 47 -20.5t14 -50.5q-5 -32 -26.5 -53t-52.5 -21zM1190 1661q-32 0 -50.5 21t-15.5 53q5 30 28.5 50.5t53.5 20.5q32 0 49.5 -20.5t14.5 -50.5q-5 -32 -27 -53t-53 -21zM432 0q-15 0 -18 16l-224 1395
q-1 10 5.5 16.5t15.5 6.5h39q13 0 20 -17l199 -1249q1 -4 5 -4t5 4l477 1247q8 19 25 19h41q16 0 20 -19l181 -1247q3 -10 10 0l508 1249q10 17 24 17h37q11 0 16 -6.5t1 -16.5l-570 -1395q-6 -16 -24 -16h-41q-19 0 -19 18l-176 1266q0 3 -1.5 4t-3.5 0t-3 -4l-483 -1266
q-7 -18 -25 -18h-41z" />
    <glyph glyph-name="wdieresis" unicode="&#x1e85;" horiz-adv-x="1374" 
d="M643 1255q-32 0 -51.5 21t-16.5 53q5 30 29.5 51t57.5 21q29 0 46.5 -21.5t12.5 -50.5q-3 -32 -25.5 -53t-52.5 -21zM954 1255q-31 0 -49 21t-14 53q3 29 27 50.5t55 21.5q30 0 48 -21t15 -51q-5 -32 -27.5 -53t-54.5 -21zM334 0q-15 0 -21 16l-155 990q-3 22 20 22h35
q20 0 20 -16l132 -891q1 -5 5 -5t7 5l352 891q3 16 23 16h41q15 0 18 -16l135 -889q2 -5 6 -5t6 5l353 889q6 16 22 16h39q23 0 14 -22l-403 -990q-6 -16 -22 -16h-43q-15 0 -21 16l-137 861q-2 5 -6 5t-6 -5l-347 -861q-10 -16 -24 -16h-43z" />
    <glyph glyph-name="Ygrave" unicode="&#x1ef2;" horiz-adv-x="1081" 
d="M715 1614q4 -10 -1 -17.5t-16 -7.5h-28q-12 0 -23 15l-102 227q-10 24 16 24h39q18 0 21 -14zM483 0q-18 0 -18 20l80 648v10l-326 731q-5 11 0 18t17 7h36q16 0 23 -15l293 -657q2 -3 6 -3t6 3l455 657q11 15 24 15h39q11 0 14 -7t-4 -18l-505 -731q-2 -2 -2 -10
l-80 -648q-3 -20 -23 -20h-35z" />
    <glyph glyph-name="ygrave" unicode="&#x1ef3;" horiz-adv-x="876" 
d="M561 1212q10 -24 -16 -24h-27q-15 0 -22 14l-105 228q-4 10 1.5 17t17.5 7h36q20 0 23 -14zM31 -410q-6 0 -9 6t-2 15l3 31q3 20 18 20h12q47 1 79 10.5t58 27.5t53.5 61.5t51.5 92t65 140.5q5 9 2 12l-221 1000q-3 22 19 22h39q17 0 20 -16l191 -893q2 -5 6 -5t6 5
l401 893q10 16 27 16h37q20 0 14 -22l-518 -1121q-45 -98 -79 -153.5t-73.5 -88.5t-80 -43t-105.5 -10h-14z" />
    <glyph glyph-name="endash" unicode="&#x2013;" horiz-adv-x="870" 
d="M133 541q-8 0 -12.5 5.5t-3.5 14.5l4 31q3 20 22 20h658q19 0 16 -20l-4 -31q0 -9 -6.5 -14.5t-15.5 -5.5h-658z" />
    <glyph glyph-name="emdash" unicode="&#x2014;" horiz-adv-x="1386" 
d="M133 541q-8 0 -12.5 5.5t-3.5 14.5l4 31q3 20 22 20h1172q19 0 16 -20l-2 -31q-3 -20 -22 -20h-1174z" />
    <glyph glyph-name="quoteleft" unicode="&#x2018;" horiz-adv-x="221" 
d="M111 1034q-11 0 -14 7t3 18l183 358q9 17 24 17h27q9 0 12.5 -6t-0.5 -17l-166 -360q-7 -17 -24 -17h-45z" />
    <glyph glyph-name="quoteright" unicode="&#x2019;" horiz-adv-x="221" 
d="M334 1434q9 0 12.5 -7t-2.5 -18l-182 -358q-8 -17 -25 -17h-26q-23 0 -13 23l166 360q7 17 25 17h45z" />
    <glyph glyph-name="quotesinglbase" unicode="&#x201a;" horiz-adv-x="1191" 
d="M117 -145q-10 0 -14 6.5t1 15.5l148 420q4 18 22 18h33q24 0 15 -22l-156 -420q-6 -18 -25 -18h-24z" />
    <glyph glyph-name="quotedblleft" unicode="&#x201c;" horiz-adv-x="440" 
d="M111 1034q-11 0 -14 7t3 18l181 358q9 17 24 17h25q9 0 12.5 -6t-0.5 -17l-164 -360q-7 -17 -24 -17h-43zM338 1034q-10 0 -13 7t3 18l178 358q8 17 24 17h23q21 0 14 -23l-164 -360q-10 -17 -26 -17h-39z" />
    <glyph glyph-name="quotedblright" unicode="&#x201d;" horiz-adv-x="440" 
d="M328 1434q9 0 12.5 -7t-2.5 -18l-178 -358q-8 -17 -25 -17h-24q-23 0 -13 23l164 360q7 17 25 17h41zM553 1434q10 0 13.5 -7t-1.5 -18l-182 -358q-9 -17 -25 -17h-22q-21 0 -14 23l163 360q10 17 27 17h41z" />
    <glyph glyph-name="quotedblbase" unicode="&#x201e;" horiz-adv-x="446" 
d="M182 260q23 0 13 -24l-181 -359q-5 -16 -22 -16h-25q-20 0 -14 22l164 361q10 16 26 16h39zM410 260q10 0 13 -7t-3 -17l-180 -359q-8 -16 -25 -16h-22q-24 0 -15 22l164 361q6 16 27 16h41z" />
    <glyph glyph-name="dagger" unicode="&#x2020;" horiz-adv-x="827" 
d="M799 936q19 0 16 -21l-2 -26q-3 -21 -22 -21h-263q-6 0 -10 -8l-153 -1249q0 -9 -6.5 -15t-14.5 -6h-39q-19 0 -16 21l151 1249q1 3 -1 5.5t-5 2.5h-260q-20 0 -16 21l2 26q4 21 22 21h260q7 0 11 8l57 469q0 9 6.5 15t15.5 6h37q9 0 14 -6t3 -15l-58 -469q0 -8 9 -8h262
z" />
    <glyph glyph-name="daggerdbl" unicode="&#x2021;" horiz-adv-x="827" 
d="M813 889q-3 -21 -22 -21h-263q-6 0 -10 -8l-84 -696q-1 -3 1 -5.5t5 -2.5h262q20 0 17 -21l-2 -26q-3 -21 -23 -21h-262q-8 0 -8 -8l-59 -469q0 -9 -6.5 -15t-14.5 -6h-39q-19 0 -16 21l57 469q0 8 -8 8h-260q-20 0 -17 21l2 26q3 21 23 21h260q10 0 10 8l84 696
q1 3 -1 5.5t-5 2.5h-260q-20 0 -16 21l2 26q4 21 22 21h260q7 0 11 8l57 469q0 9 6.5 15t15.5 6h37q9 0 14 -6t3 -15l-58 -469q0 -8 9 -8h262q19 0 16 -21z" />
    <glyph glyph-name="bullet" unicode="&#x2022;" horiz-adv-x="606" 
d="M303 315q-89 0 -144.5 66t-43.5 158q10 92 81 156.5t162 64.5q88 0 142.5 -64.5t44.5 -156.5t-82 -158t-160 -66z" />
    <glyph glyph-name="ellipsis" unicode="&#x2026;" horiz-adv-x="1517" 
d="M229 10q-40 0 -64.5 29t-19.5 70q6 39 39 67.5t70 28.5q39 0 65.5 -28.5t22.5 -67.5q-6 -41 -39.5 -70t-73.5 -29zM721 10q-40 0 -64.5 29t-19.5 70q4 39 36.5 67.5t69.5 28.5q40 0 66 -28.5t22 -67.5q-4 -41 -37 -70t-73 -29zM1200 10q-41 0 -65 28.5t-19 70.5
q4 39 37 67.5t70 28.5q39 0 65.5 -28.5t22.5 -67.5q-4 -41 -37.5 -70t-73.5 -29z" />
    <glyph glyph-name="perthousand" unicode="&#x2030;" horiz-adv-x="2232" 
d="M346 567q-110 0 -168 66t-45 176l49 401q14 109 88.5 174.5t184.5 65.5t169.5 -65.5t47.5 -174.5l-49 -401q-13 -110 -89.5 -176t-187.5 -66zM332 0q-12 0 -14 7t6 18l1040 1394q15 15 27 15h26q24 0 10 -25l-1044 -1395q-11 -14 -25 -14h-26zM352 627q83 0 139.5 48.5
t65.5 127.5l51 414q9 79 -35 127.5t-127 48.5q-79 0 -134 -49t-66 -127l-49 -414q-10 -79 32.5 -127.5t122.5 -48.5zM1264 -16q-110 0 -168 65.5t-45 175.5l49 402q13 109 87.5 174t184.5 65t169.5 -65t47.5 -174l-49 -402q-13 -110 -89 -175.5t-187 -65.5zM1886 -16
q-110 0 -168 65.5t-45 175.5l49 402q12 108 87 173.5t184 65.5q111 0 170.5 -65.5t46.5 -173.5l-49 -402q-13 -109 -89 -175t-186 -66zM1270 43q83 0 139.5 48.5t65.5 127.5l51 414q9 79 -35 127.5t-127 48.5q-79 0 -134.5 -49t-64.5 -127l-51 -414q-10 -79 33 -127.5
t123 -48.5zM1892 43q82 0 138.5 48.5t66.5 127.5l51 414q9 78 -35.5 127t-125.5 49q-80 0 -136 -49t-65 -127l-51 -414q-9 -79 34 -127.5t123 -48.5z" />
    <glyph glyph-name="guilsinglleft" unicode="&#x2039;" horiz-adv-x="747" 
d="M500 244q6 -9 1.5 -17t-16.5 -8h-32q-17 0 -23 12l-233 330q-13 13 2 29l315 330q9 12 25 12h34q12 0 14 -8t-7 -17l-310 -325q-4 -8 -2 -13z" />
    <glyph glyph-name="guilsinglright" unicode="&#x203a;" horiz-adv-x="806" 
d="M236 219q-12 0 -14 8t7 17l310 325q4 9 2 13l-232 325q-6 9 -1.5 17t16.5 8h32q17 0 23 -12l233 -330q14 -14 -4 -29l-313 -330q-12 -12 -27 -12h-32z" />
    <glyph glyph-name="fraction" unicode="&#x2044;" horiz-adv-x="481" 
d="M-248 0q-24 0 -10 25l1042 1394q11 15 25 15h29q12 0 14 -7t-6 -18l-1043 -1395q-14 -14 -26 -14h-25z" />
    <glyph glyph-name="uni2074" unicode="&#x2074;" horiz-adv-x="641" 
d="M655 1231q19 0 19 -21l-4 -20q0 -9 -7 -15t-16 -6h-37q-8 0 -8 -8l-27 -211q-3 -20 -22 -20h-25q-21 0 -18 20l27 211q0 8 -9 8h-342q-8 0 -12.5 6t-3.5 15l2 20q4 14 10 25l312 541q8 14 24 14h23q11 0 14.5 -7t-2.5 -18l-303 -524q-5 -10 4 -10h283q8 0 8 8l24 197
q3 20 23 20h26q8 0 13 -5.5t4 -14.5l-25 -197q0 -8 8 -8h37z" />
    <glyph glyph-name="uni2075" unicode="&#x2075;" horiz-adv-x="587" 
d="M633 1329q15 -60 6 -143q-13 -87 -41 -142q-34 -63 -91 -97t-130 -34q-83 0 -134.5 44t-62.5 118q-4 25 -4 68q3 20 23 20h26q19 0 19 -20q-3 -19 0 -41q3 -59 40.5 -94t98.5 -35q107 0 156 94q27 50 36 119q6 75 -8 123q-28 90 -127 90q-56 0 -102.5 -24t-67.5 -66
q-14 -17 -26 -17h-27q-9 0 -14 6t-4 15l55 450q4 21 22 21h381q9 0 14.5 -6t4.5 -15l-2 -16q-4 -21 -23 -21h-329q-7 0 -11 -8l-37 -311q-2 -5 1.5 -6.5t7.5 2.5q67 55 170 55q138 0 180 -129z" />
    <glyph glyph-name="uni2076" unicode="&#x2076;" horiz-adv-x="606" 
d="M651 1296q5 -32 -2 -110q-11 -75 -24 -111q-28 -72 -93 -117t-147 -45t-132.5 44.5t-62.5 117.5q-9 37 3 113l45 379q13 106 82.5 166.5t173.5 60.5q93 0 144.5 -58t41.5 -151l-2 -4q0 -9 -6.5 -14.5t-14.5 -5.5h-26q-9 0 -14.5 3t-4.5 7v10q9 68 -27 111t-98 43
q-76 0 -126 -45t-60 -127l-22 -179q0 -5 2.5 -6.5t7.5 2.5q70 76 170 76q77 0 129 -44.5t63 -115.5zM565 1098q13 36 19 88q8 38 4 84q-5 58 -43.5 92.5t-100.5 34.5q-60 0 -105.5 -35t-66.5 -92q-8 -20 -16 -84q-6 -60 -6 -88q3 -56 41.5 -90.5t99.5 -34.5q62 0 107.5 34.5
t66.5 90.5z" />
    <glyph glyph-name="uni2077" unicode="&#x2077;" horiz-adv-x="536" 
d="M254 930q-23 0 -14 22l366 770q3 3 1.5 7t-5.5 4h-338q-8 0 -8 -9l-8 -61q-4 -21 -23 -21h-16q-8 0 -12.5 6t-3.5 15l12 106q3 21 22 21h443q8 0 12.5 -6t3.5 -15l-2 -24q-4 -18 -8 -25l-369 -774q-8 -16 -26 -16h-27z" />
    <glyph glyph-name="uni2078" unicode="&#x2078;" horiz-adv-x="612" 
d="M637 1255q6 -40 -2 -94q-4 -48 -21 -88q-28 -72 -91.5 -116t-145.5 -44q-83 0 -134.5 43t-62.5 117q-9 39 -4 90q5 35 25 90q39 86 112 123q11 7 2 13q-66 39 -84 114q-7 37 -2 72q3 33 21 76q68 143 235 143q83 0 135 -37.5t66 -105.5q5 -38 2 -76q-2 -22 -20 -70
q-35 -78 -115 -116q-10 -7 0 -13q72 -40 84 -121zM293 1528q5 -53 42.5 -85t102.5 -32t113 32.5t61 84.5q7 21 11 45q5 27 2 47q-7 55 -46.5 86t-101.5 31q-65 0 -108.5 -31.5t-63.5 -85.5q-12 -31 -14 -47q-4 -22 2 -45zM559 1102q5 13 8 37t4 28q5 47 4 60q-3 58 -43 94.5
t-102 36.5t-107.5 -36t-66.5 -95q-9 -29 -14 -62q-2 -20 -2 -63q5 -58 42.5 -93.5t100.5 -35.5q62 0 110 36t66 93z" />
    <glyph glyph-name="uni2079" unicode="&#x2079;" horiz-adv-x="606" 
d="M670 1632q3 -14 3.5 -32t-0.5 -29.5t-3 -29t-2 -21.5l-47 -379q-12 -106 -81.5 -167t-174.5 -61q-92 0 -144.5 58t-40.5 151v4q4 21 23 21h24q21 0 21 -10l-2 -11q-9 -68 27.5 -110.5t99.5 -42.5q75 0 125 45t59 127l23 178q0 13 -9 4q-73 -76 -172 -76q-77 0 -129 44.5
t-63 115.5q-3 31 4 111q5 61 22 110q30 72 94.5 117t147.5 45q80 0 130.5 -44.5t64.5 -117.5zM586 1438q8 20 16 84q7 72 6 88q-3 56 -41.5 90.5t-99.5 34.5q-62 0 -107.5 -34.5t-66.5 -90.5q-15 -50 -19 -88q-6 -59 -2 -84q3 -58 41.5 -92.5t102.5 -34.5q60 0 105.5 35
t64.5 92z" />
    <glyph glyph-name="franc" unicode="&#x20a3;" horiz-adv-x="1308" 
d="M1389 1382q0 -9 -6.5 -14.5t-14.5 -5.5h-766q-8 0 -8 -8l-74 -590q0 -8 8 -8h545q9 0 14.5 -6t4.5 -15l-5 -33q-3 -20 -22 -20h-547q-8 0 -8 -8l-37 -295q0 -8 8 -8h320q19 0 16 -21l-2 -22q-3 -21 -22 -21h-320q-6 0 -10 -8l-33 -279q-3 -20 -22 -20h-39q-8 0 -13 5.5
t-4 14.5l35 279q0 8 -8 8h-146q-8 0 -12.5 6t-3.5 15l2 22q3 21 23 21h145q8 0 8 8l127 1034q4 21 23 21h831q20 0 17 -21z" />
    <glyph glyph-name="Euro" unicode="&#x20ac;" horiz-adv-x="1265" 
d="M692 53q129 0 221.5 73t120.5 196q6 19 25 16l37 -6q20 -3 14 -23q-39 -149 -153.5 -238t-272.5 -89q-177 0 -271.5 108t-72.5 285l22 184q0 8 -6 8h-139q-18 0 -18 21l2 16q3 21 22 21h139q7 0 11 8l18 162q0 8 -6 8h-139q-19 0 -19 20l2 17q1 9 8 14.5t15 5.5h139
q6 0 10 8l23 193q22 175 142.5 282t297.5 107q162 0 255 -91t91 -243q0 -19 -20 -22l-39 -7q-21 -3 -21 19q3 125 -71 198.5t-205 73.5q-140 0 -237.5 -87t-114.5 -228l-25 -195q0 -8 8 -8h516q11 0 15 -7t-2 -17l-10 -17q-5 -16 -23 -16h-504q-8 0 -8 -8l-20 -162
q0 -8 8 -8h448q11 0 15 -7.5t-2 -17.5l-11 -16q-6 -17 -22 -17h-436q-9 0 -9 -8l-22 -188q-19 -141 57.5 -229.5t216.5 -88.5z" />
    <glyph glyph-name="uni20BA" unicode="&#x20ba;" horiz-adv-x="1257" 
d="M1053 516q3 21 22 21h37q9 0 14 -6t4 -15q-32 -189 -179.5 -329.5t-368.5 -174.5q-82 -12 -176 -12q-19 0 -19 20l82 654q0 3 -2.5 6t-5.5 2l-221 -64q-22 -7 -25 15l-2 18q-3 21 16 27l242 65q6 3 6 11l17 135q2 3 -1 6t-6 2l-221 -61q-21 -7 -24 14l-2 16q-3 21 16 27
l242 65q6 3 6 11l55 444q3 21 23 21h36q19 0 19 -21l-51 -420q-2 -3 0.5 -6t5.5 -2l278 78q20 7 23 -14l2 -17q3 -20 -16 -26l-297 -82q-7 -4 -7 -11l-16 -135q-2 -3 0.5 -6t5.5 -2l279 78q19 6 22 -14l2 -17q3 -20 -16 -26l-297 -82q-6 -3 -6 -11l-76 -620q-2 -3 1 -5.5
t9 -2.5q227 12 382.5 138t187.5 308z" />
    <glyph glyph-name="uni20BD" unicode="&#x20bd;" horiz-adv-x="1386" 
d="M981 678h-434q-6 0 -10 -8l-25 -201q0 -8 8 -8h520q20 0 17 -21l-2 -18q-3 -21 -23 -21h-520q-8 0 -8 -8l-47 -373q0 -9 -7 -14.5t-16 -5.5h-37q-19 0 -16 20l45 373q0 8 -8 8h-172q-20 0 -17 21l2 18q0 9 7 15t16 6h172q8 0 8 8l25 201q1 3 -1 5.5t-5 2.5h-172
q-9 0 -14.5 5.5t-4.5 14.5l4 31q4 21 23 21h172q6 0 10 8l80 659q3 21 22 21h504q164 0 252 -105.5t66 -277.5q-22 -170 -136 -273.5t-278 -103.5zM631 1364q-6 0 -10 -8l-72 -598q-1 -3 1 -5.5t5 -2.5h434q132 0 221.5 83.5t106.5 221.5q19 141 -50.5 225t-201.5 84h-434z
" />
    <glyph glyph-name="uni2113" unicode="&#x2113;" horiz-adv-x="997" 
d="M559 49q96 0 184 62q9 7 16 4.5t9 -13.5l4 -20q6 -18 -8 -29q-34 -29 -99 -49t-128 -20q-118 0 -173 79.5t-36 221.5l30 270q0 11 -10 4q-11 -9 -29.5 -23t-33.5 -26.5t-29 -24.5q-17 -13 -27 4l-10 17q-11 18 6 29q48 40 140 108q4 4 6 10l43 377q19 160 108.5 285
t204.5 135q95 9 151 -64.5t42 -187.5q-8 -64 -40 -129.5t-73.5 -117.5t-108.5 -114t-120.5 -104t-135.5 -102q-4 -4 -4 -10l-39 -330q-15 -124 24.5 -183t135.5 -59zM485 1024l-34 -305q-1 -6 1 -6.5t7 2.5q84 64 141.5 113.5t116.5 111.5t93 125.5t42 128.5
q11 88 -26 144.5t-105 47.5q-83 -12 -151 -115t-85 -247z" />
    <glyph glyph-name="trademark" unicode="&#x2122;" horiz-adv-x="1294" 
d="M199 1378q-9 0 -14 6t-3 15l2 14q0 9 6.5 15t14.5 6h438q19 0 16 -21v-14q-1 -9 -7.5 -15t-14.5 -6h-188q-9 0 -9 -8l-78 -635q-3 -20 -22 -20h-21q-8 0 -12.5 5.5t-3.5 14.5l78 635q0 8 -6 8h-176zM1253 1419q11 15 25 15h25q19 0 16 -21l-82 -678q-3 -20 -23 -20h-20
q-19 0 -16 20l69 574q2 6 -2 8t-8 -4l-184 -246q-11 -14 -25 -14q-15 0 -22 14l-125 246q-3 6 -7 4t-4 -8l-71 -574q0 -9 -7 -14.5t-16 -5.5h-18q-19 0 -19 20l84 678q3 21 23 21h22q14 0 21 -15l143 -282q0 -3 4 -3t6 3z" />
    <glyph glyph-name="uni2126" unicode="&#x2126;" horiz-adv-x="1280" 
d="M147 0q-18 0 -18 20l4 31q3 21 23 21h198q6 0 7.5 3.5t-3.5 6.5q-88 54 -128 152.5t-25 226.5l65 530q26 206 165.5 332.5t340.5 126.5q204 0 313.5 -126.5t84.5 -332.5l-66 -530q-17 -128 -81.5 -226.5t-164.5 -152.5q-4 -2 -5 -4.5t0.5 -4t4.5 -1.5h201q9 0 14 -6
t4 -15l-4 -31q-3 -20 -22 -20h-340q-20 0 -17 20l4 35q3 18 21 21q104 23 195.5 128t109.5 249l68 542q22 172 -68.5 277.5t-259.5 105.5q-167 0 -282.5 -105.5t-137.5 -277.5l-65 -542q-19 -145 46.5 -249t162.5 -126q16 -5 16 -23l-4 -35q-3 -20 -23 -20h-334z" />
    <glyph glyph-name="estimated" unicode="&#x212e;" horiz-adv-x="1777" 
d="M1026 1450q207 0 360.5 -96t225.5 -264.5t47 -378.5q0 -9 -21 -9h-1259q-6 0 -10 -8l-45 -358q0 -8 2 -10q72 -138 209 -216.5t317 -78.5q194 0 362 93.5t271 252.5q8 14 24 14h17q11 0 14.5 -6.5t-2.5 -17.5q-112 -176 -295.5 -279.5t-396.5 -103.5q-154 0 -281.5 55.5
t-210.5 152t-120.5 231.5t-18.5 288q19 157 89.5 294t177 235t248 154t296.5 56zM422 1108q-2 -2 -2 -10l-43 -340q0 -8 8 -8h1112q8 0 8 8l41 340v10q-73 139 -209.5 217t-316.5 78q-179 0 -335 -78t-263 -217z" />
    <glyph glyph-name="oneeighth" unicode="&#x215b;" horiz-adv-x="1550" 
d="M287 594q0 -9 -7 -15t-16 -6h-24q-19 0 -19 21l94 760q0 4 -1.5 6.5t-4.5 1.5l-80 -23q-10 -3 -15 2.5t-3 16.5v12q3 18 20 23l82 34q14 7 25 7h33q19 0 16 -21zM1217 1419q15 15 26 15h27q12 0 15 -7t-5 -18l-1044 -1395q-11 -14 -25 -14h-27q-12 0 -14 7t6 18z
M1460 326q6 -41 -2 -95q-4 -50 -20 -88q-28 -72 -92 -115.5t-146 -43.5t-133 42.5t-63 116.5q-9 49 -5 90q6 39 27 91q35 83 111 122q12 6 2 13q-66 39 -84 114q-7 37 -2 72q4 36 20 76q68 143 236 143q83 0 134.5 -37.5t65.5 -105.5q5 -38 2 -76q-3 -32 -20 -70
q-35 -78 -113 -116q-12 -6 -2 -13q72 -40 84 -120zM1116 598q5 -53 42.5 -85t103.5 -32q65 0 113 32.5t61 84.5q5 15 10 45q4 27 2 47q-7 55 -46.5 86t-101.5 31q-64 0 -108 -32t-64 -85q-12 -31 -14 -47q-4 -22 2 -45zM1382 172q8 24 13 66q5 46 4 59q-3 57 -43 94t-101 37
q-64 0 -109.5 -36t-66.5 -95q-10 -30 -14 -61q-3 -28 0 -64q3 -58 40.5 -93.5t100.5 -35.5q62 0 111.5 36.5t64.5 92.5z" />
    <glyph glyph-name="threeeighths" unicode="&#x215c;" horiz-adv-x="1755" 
d="M565 698q-70 -118 -217 -118q-82 0 -132 44.5t-62 120.5q-6 28 -2 82q3 21 22 21h25q21 0 18 -21q-4 -40 -4 -59q3 -57 41.5 -92t99.5 -35q100 0 152 82q32 57 41 127q12 86 -12 141q-28 82 -127 82q-21 0 -31 -4q-17 -3 -25 8l-8 13q-12 16 4 28l240 264q3 3 1.5 7
t-5.5 4h-340q-8 0 -13 5.5t-4 14.5l2 17q3 20 23 20h410q8 0 12.5 -5.5t3.5 -14.5l-2 -23q-3 -16 -12 -25l-222 -249q-3 -3 -1.5 -7t5.5 -4q112 -9 154 -106q24 -67 12 -166q-9 -90 -47 -152zM1421 1419q15 15 27 15h27q24 0 10 -25l-1045 -1395q-10 -14 -24 -14h-27
q-12 0 -14 7t6 18zM1665 326q6 -41 -2 -95q-4 -48 -21 -88q-28 -72 -91.5 -115.5t-145.5 -43.5q-83 0 -134.5 43t-62.5 116q-9 39 -4 90q5 36 25 91q38 84 112 122q11 7 2 13q-65 38 -83 114q-8 39 -3 72q3 33 21 76q68 143 235 143q83 0 135 -37.5t66 -105.5q5 -38 2 -76
q-2 -22 -20 -70q-35 -78 -115 -116q-10 -7 0 -13q72 -40 84 -120zM1321 598q5 -53 42.5 -85t102.5 -32t113 32.5t61 84.5q7 21 11 45q5 27 2 47q-7 55 -46.5 86t-101.5 31q-65 0 -108.5 -31.5t-63.5 -85.5q-12 -31 -14 -47q-4 -22 2 -45zM1587 172q5 13 8 37.5t4 28.5
q6 51 5 59q-3 58 -43.5 94.5t-102.5 36.5t-107.5 -36t-66.5 -95q-10 -30 -14 -61q-2 -20 -2 -64q5 -58 42.5 -93.5t100.5 -35.5q62 0 110 36t66 93z" />
    <glyph glyph-name="fiveeighths" unicode="&#x215d;" horiz-adv-x="1687" 
d="M555 694q-34 -63 -91 -97t-130 -34q-83 0 -134.5 44t-62.5 118q-4 25 -4 68q3 20 23 20h26q19 0 19 -20q-3 -19 0 -41q3 -59 40.5 -94t98.5 -35q107 0 156 94q27 50 36 119q6 75 -8 122q-29 91 -127 91q-56 0 -102 -24.5t-68 -66.5q-13 -16 -26 -16h-27q-9 0 -14 6t-4 15
l55 450q3 21 22 21h381q9 0 14.5 -6t4.5 -15l-2 -16q-3 -21 -23 -21h-329q-7 0 -11 -8l-37 -311q-2 -5 1.5 -6.5t7.5 2.5q67 55 170 55q138 0 180 -129q15 -60 6 -143q-13 -87 -41 -142zM1354 1419q15 15 26 15h27q24 0 10 -25l-1044 -1395q-11 -14 -25 -14h-26
q-12 0 -14.5 7t5.5 18zM1597 326q6 -41 -2 -95q-4 -50 -20 -88q-28 -72 -92 -115.5t-146 -43.5q-83 0 -134 43t-62 116q-9 39 -4 90q6 41 24 91q38 84 113 122q12 6 2 13q-66 39 -84 114q-7 37 -2 72q4 36 20 76q68 143 236 143q83 0 135 -37.5t66 -105.5q5 -38 2 -76
q-2 -18 -21 -70q-35 -78 -115 -116q-10 -7 0 -13q72 -40 84 -120zM1253 598q5 -53 42.5 -85t103.5 -32q65 0 113 32.5t61 84.5q5 15 10 45q5 27 2 47q-7 55 -46 86t-101 31q-64 0 -108 -32t-64 -85q-13 -36 -15 -47q-4 -22 2 -45zM1520 172q5 13 8 37.5t4 28.5q5 46 4 59
q-3 58 -43 94.5t-102 36.5t-107.5 -36t-66.5 -95q-11 -35 -15 -61q-2 -20 -2 -64q5 -58 42.5 -93.5t100.5 -35.5q62 0 110.5 36.5t66.5 92.5z" />
    <glyph glyph-name="seveneighths" unicode="&#x215e;" horiz-adv-x="1554" 
d="M262 590q-6 -17 -24 -17h-29q-22 0 -12 23l366 770q5 10 -4 10h-338q-6 0 -10 -8l-6 -61q-3 -21 -23 -21h-16q-20 0 -16 21l12 106q4 21 22 21h441q18 0 18 -21l-4 -24q0 -1 -6 -25zM1221 1419q15 15 26 15h27q24 0 10 -25l-1044 -1395q-10 -14 -25 -14h-27q-12 0 -14 7
t6 18zM1464 326q6 -41 -2 -95q-4 -50 -20 -88q-28 -72 -92 -115.5t-146 -43.5q-83 0 -134 43t-62 116q-9 39 -4 90q6 41 24 91q38 84 113 122q12 6 2 13q-66 39 -84 114q-7 37 -2 72q4 36 20 76q68 143 236 143q83 0 134.5 -37.5t65.5 -105.5q6 -43 3 -76q-2 -18 -21 -70
q-35 -78 -115 -116q-10 -7 0 -13q72 -40 84 -120zM1120 598q5 -53 42.5 -85t103.5 -32q65 0 113 32.5t61 84.5q5 15 10 45q4 27 2 47q-7 55 -46 86t-101 31q-64 0 -108 -32t-64 -85q-13 -36 -15 -47q-4 -22 2 -45zM1386 172q5 14 8.5 38.5t4.5 27.5q5 46 4 59
q-3 58 -43.5 94.5t-102.5 36.5t-107.5 -36t-66.5 -95q-10 -30 -14 -61q-3 -28 0 -64q3 -58 40.5 -93.5t100.5 -35.5q62 0 110 36t66 93z" />
    <glyph glyph-name="partialdiff" unicode="&#x2202;" horiz-adv-x="1157" 
d="M1016 682q-9 -73 -20.5 -137t-32.5 -137t-47.5 -132t-67 -115t-90 -93.5t-117 -60.5t-147.5 -23q-177 0 -269 119t-67 317q16 133 84.5 237t168.5 159.5t212 55.5q102 -1 182 -47.5t127 -119.5q10 -10 10 -5v7q36 356 -59 526q-68 124 -205 139q-127 15 -240 -59
q-22 -13 -28 8l-7 31q-3 16 13 26q121 82 272 70q175 -18 258 -166q118 -203 70 -600zM506 55q175 0 276 130t144 380v10q-31 96 -111.5 160t-193.5 64q-142 0 -253.5 -105.5t-131.5 -271.5q-22 -165 53 -266t217 -101z" />
    <glyph glyph-name="uni2206" unicode="&#x2206;" horiz-adv-x="1247" 
d="M51 0q-19 0 -16 20l4 39q0 1 2 10t4 15l672 1333q6 17 22 17h39q15 0 21 -17l344 -1335q3 -14 0 -25l-4 -37q-3 -20 -23 -20h-1065zM121 80q-5 -10 4 -10h932q4 0 7 3.5t1 6.5l-313 1239q0 6 -5 6t-8 -6z" />
    <glyph glyph-name="product" unicode="&#x220f;" horiz-adv-x="1316" 
d="M1243 1638q9 0 14.5 -5.5t4.5 -14.5l-246 -2007q-4 -21 -23 -21h-39q-20 0 -16 21l240 1948q0 8 -9 8h-714q-9 0 -9 -8l-239 -1948q-3 -21 -23 -21h-39q-8 0 -12.5 6t-3.5 15l246 2007q3 20 22 20h846z" />
    <glyph glyph-name="summation" unicode="&#x2211;" horiz-adv-x="1230" 
d="M147 -408q-9 0 -14 6t-4 15l4 35q4 16 10 26l600 922q3 6 0 12l-389 762q-4 16 -4 27l4 35q3 20 23 20h840q21 0 18 -20l-4 -29q-3 -21 -23 -21h-764q-4 0 -7 -3.5t-1 -6.5l393 -756q4 -8 -4 -28l-598 -916q-5 -10 4 -10h766q19 0 19 -20l-4 -29q-4 -21 -23 -21h-842z
" />
    <glyph glyph-name="minus" unicode="&#x2212;" horiz-adv-x="1007" 
d="M143 618q-19 0 -16 21l2 29q3 20 23 20h792q19 0 19 -20l-5 -29q-4 -21 -22 -21h-793z" />
    <glyph glyph-name="uni2215" unicode="&#x2215;" horiz-adv-x="921" 
d="M53 0q-10 0 -13 7t3 18l866 1394q9 15 25 15h33q10 0 13 -7t-3 -18l-864 -1395q-6 -14 -25 -14h-35z" />
    <glyph glyph-name="uni2219" unicode="&#x2219;" horiz-adv-x="606" 
d="M317 426q-90 0 -145.5 66t-44.5 159q12 92 83 155.5t161 63.5q88 0 143 -63.5t45 -155.5q-12 -92 -83 -158.5t-159 -66.5z" />
    <glyph glyph-name="radical" unicode="&#x221a;" horiz-adv-x="1398" 
d="M252 -410q-20 0 -23 17l-157 690q-3 21 16 27l35 10q16 5 22 -12l134 -590q1 -4 5 -4t5 4l719 1863q8 19 24 19h320q9 0 14 -6t4 -15l-4 -28q-4 -21 -23 -21h-268q-8 0 -10 -6l-746 -1929q-8 -19 -24 -19h-43z" />
    <glyph glyph-name="infinity" unicode="&#x221e;" horiz-adv-x="1433" 
d="M1133 952q126 0 197 -86t56 -215q-15 -128 -107.5 -213.5t-225.5 -85.5q-109 0 -178.5 59t-131.5 173q-6 6 -12 0q-44 -53 -79.5 -88.5t-81 -71.5t-94 -54t-99.5 -18q-120 0 -192.5 88t-55.5 215q15 127 108 212t220 85q54 0 98 -17t79 -52t60 -70.5t54 -89.5q7 -7 16 4
q100 120 187 172.5t182 52.5zM383 418q38 0 76.5 14.5t66.5 33.5t63.5 55t55.5 60t55 68q3 7 0 13q-30 57 -50.5 90.5t-51.5 68t-68 50.5t-84 16q-98 0 -167.5 -65.5t-81.5 -166.5q-12 -100 41.5 -168.5t144.5 -68.5zM1063 418q103 0 173.5 66t82.5 167q12 102 -42 169
t-151 67q-90 0 -165.5 -58t-167.5 -172q-5 -5 -2 -12q30 -56 51.5 -89t54.5 -69t74 -52.5t92 -16.5z" />
    <glyph glyph-name="integral" unicode="&#x222b;" horiz-adv-x="808" 
d="M8 -410q-21 0 -18 21l2 31q3 20 22 20h45q125 0 177.5 62.5t68.5 199.5l148 1178q13 102 36.5 165t69.5 100.5t108.5 51.5t161.5 15q19 0 19 -21l-2 -31q-3 -20 -23 -20h-47q-124 0 -177 -63t-69 -199l-149 -1178q-11 -82 -28.5 -137.5t-44.5 -94.5t-69.5 -60t-97 -30
t-133.5 -10z" />
    <glyph glyph-name="approxequal" unicode="&#x2248;" horiz-adv-x="962" 
d="M733 788q-44 0 -87.5 13.5t-60 23t-61.5 37.5q-80 49 -145 49q-103 0 -170 -86q-13 -20 -27 -6l-16 12q-16 12 -4 27q37 59 95.5 93t127.5 34q83 0 168 -55q3 -2 21 -13t24 -14.5t22 -12t26.5 -12t27 -8t33 -6.5t34.5 -2q45 0 75.5 20t72.5 64q15 15 29 4l20 -14
q12 -12 2 -29q-90 -119 -207 -119zM678 340q-44 0 -87.5 13.5t-60 23t-61.5 37.5q-76 49 -145 49q-100 0 -170 -86q-13 -20 -27 -6l-16 12q-16 13 -5 27q37 59 95.5 93t128.5 34q51 0 88.5 -14.5t79.5 -41.5q5 -3 22 -13t24 -14t22.5 -12t26.5 -11.5t27 -8t32 -6.5t34 -2
q45 0 77 21t71 63q15 15 28 4l21 -15q14 -14 2 -28q-90 -119 -207 -119z" />
    <glyph glyph-name="notequal" unicode="&#x2260;" horiz-adv-x="1007" 
d="M987 877q0 -9 -6.5 -15t-15.5 -6h-303q-6 0 -9 -6l-217 -356q-4 -11 4 -11h480q19 0 16 -20l-2 -29q-3 -20 -23 -20h-514q-4 0 -10 -6l-98 -166q-9 -15 -27 -15h-20q-9 0 -13 7.5t2 17.5l93 151q4 11 -5 11h-200q-19 0 -19 20l4 29q3 20 23 20h235q5 0 11 6l215 357
q7 10 -4 10h-412q-20 0 -16 21l4 28q0 9 6 15t14 6h449q5 0 8 6l125 207q6 14 24 14h21q10 0 13 -7.5t-3 -17.5l-117 -192q-3 -10 7 -10h268q8 0 12.5 -6t3.5 -15z" />
    <glyph glyph-name="lessequal" unicode="&#x2264;" horiz-adv-x="1007" 
d="M907 219q-3 -24 -26 -14l-746 387q-12 7 -12 24l6 46q3 16 16 24l842 387q12 4 18.5 0.5t4.5 -14.5l-4 -39q-3 -15 -17 -23l-774 -352q-11 -6 -2 -12l688 -352q13 -10 10 -23zM883 20q-3 -20 -23 -20h-792q-20 0 -17 20l2 29q3 21 23 21h792q19 0 19 -21z" />
    <glyph glyph-name="greaterequal" unicode="&#x2265;" horiz-adv-x="1007" 
d="M96 205q-22 -9 -22 14l6 39q0 13 16 23l774 352q8 6 2 12l-688 352q-12 7 -12 23l6 39q1 10 8.5 14.5t16.5 -0.5l747 -387q14 -8 11 -24l-5 -46q-3 -17 -18 -24zM68 0q-20 0 -17 20l2 29q3 21 23 21h792q19 0 19 -21l-4 -29q-3 -20 -23 -20h-792z" />
    <glyph glyph-name="lozenge" unicode="&#x25ca;" horiz-adv-x="923" 
d="M393 -86q-17 0 -20 16l-234 772q-3 14 4 29l424 772q9 17 25 17h35q17 0 20 -17l236 -772q4 -18 -4 -29l-422 -772q-8 -16 -25 -16h-39zM418 6q2 -4 6 -4t6 4l377 705q3 6 0 12l-203 704q-2 5 -5.5 5t-6.5 -5l-379 -704q-3 -6 0 -12z" />
    <glyph glyph-name="i.loclTRK" horiz-adv-x="421" 
d="M319 1237q-32 0 -50 20.5t-15 51.5q3 29 27 49t55 20q30 0 47 -19.5t14 -49.5q-5 -31 -27 -51.5t-51 -20.5zM150 0q-19 0 -19 20l121 988q1 9 7.5 14.5t14.5 5.5h39q20 0 17 -20l-121 -988q-3 -20 -23 -20h-36z" />
    <glyph glyph-name="a.alt" horiz-adv-x="997" 
d="M592 1044q170 0 245 -91.5t56 -250.5l-84 -682q-3 -20 -23 -20h-36q-9 0 -14.5 5.5t-4.5 14.5l12 99q0 12 -8 4q-61 -68 -152.5 -103.5t-191.5 -35.5q-50 0 -94.5 9t-84 30.5t-66.5 53.5t-39.5 81t-4.5 110q19 151 138.5 236.5t310.5 85.5h242q10 0 10 8l12 107
q14 124 -42 196t-195 72q-106 0 -182 -46t-101 -124q-9 -22 -27 -19l-41 7q-20 4 -14 20q34 105 136 169t243 64zM410 55q85 0 160 26t130.5 84.5t65.5 139.5l27 209q0 8 -9 8h-239q-150 0 -250 -66t-115 -184q-13 -107 52 -162t178 -55z" />
    <glyph glyph-name="a.sc" horiz-adv-x="1001" 
d="M834 0q-18 0 -21 16l-45 224q0 6 -6 6h-541q-6 0 -8 -6l-100 -224q-6 -16 -25 -16h-37q-22 0 -12 23l516 1140q7 17 25 17h47q19 0 22 -17l240 -1140q3 -23 -19 -23h-36zM250 324q-2 -3 0 -7t6 -4h487q9 0 9 11l-154 749q0 3 -2 4t-5 0t-5 -4z" />
    <glyph glyph-name="aacute.sc" horiz-adv-x="1001" 
d="M782 1604q12 0 15.5 -7t-2.5 -18l-160 -227q-11 -15 -27 -15h-26q-12 0 -15 7.5t4 17.5l148 227q9 15 26 15h37zM834 0q-18 0 -21 16l-45 224q0 6 -6 6h-541q-6 0 -8 -6l-100 -224q-6 -16 -25 -16h-37q-22 0 -12 23l516 1140q7 17 25 17h47q19 0 22 -17l240 -1140
q3 -23 -19 -23h-36zM250 324q-2 -3 0 -7t6 -4h487q9 0 9 11l-154 749q0 3 -2 4t-5 0t-5 -4z" />
    <glyph glyph-name="abreve.sc" horiz-adv-x="1001" 
d="M616 1266q-79 0 -130 53t-48 131q0 20 21 20h18q19 0 19 -20q0 -55 36.5 -92t90.5 -37q56 0 102 37t59 92q6 20 25 20h16q9 0 14.5 -5.5t2.5 -14.5q-17 -78 -82 -131t-144 -53zM834 0q-18 0 -21 16l-45 224q0 6 -6 6h-541q-6 0 -8 -6l-100 -224q-6 -16 -25 -16h-37
q-22 0 -12 23l516 1140q7 17 25 17h47q19 0 22 -17l240 -1140q3 -23 -19 -23h-36zM250 324q-2 -3 0 -7t6 -4h487q9 0 9 11l-154 749q0 3 -2 4t-5 0t-5 -4z" />
    <glyph glyph-name="uni01CE.sc" horiz-adv-x="1001" 
d="M666 1307q-13 -13 -29 -13h-41q-20 0 -25 13l-135 219q-6 9 -1.5 16.5t16.5 7.5h30q18 0 23 -12l117 -186q7 -10 12 0l158 186q10 12 26 12h31q12 0 14.5 -7.5t-6.5 -16.5zM834 0q-18 0 -21 16l-45 224q0 6 -6 6h-541q-6 0 -8 -6l-100 -224q-6 -16 -25 -16h-37
q-22 0 -12 23l516 1140q7 17 25 17h47q19 0 22 -17l240 -1140q3 -23 -19 -23h-36zM250 324q-2 -3 0 -7t6 -4h487q9 0 9 11l-154 749q0 3 -2 4t-5 0t-5 -4z" />
    <glyph glyph-name="acircumflex.sc" horiz-adv-x="1001" 
d="M653 1518q-5 10 -12 0l-162 -187q-7 -12 -26 -12h-31q-12 0 -14.5 7.5t6.5 16.5l192 222q7 12 27 12h41q19 0 24 -12l138 -222q7 -9 2 -16.5t-17 -7.5h-28q-20 0 -25 12zM834 0q-18 0 -21 16l-45 224q0 6 -6 6h-541q-6 0 -8 -6l-100 -224q-6 -16 -25 -16h-37
q-22 0 -12 23l516 1140q7 17 25 17h47q19 0 22 -17l240 -1140q3 -23 -19 -23h-36zM250 324q-2 -3 0 -7t6 -4h487q9 0 9 11l-154 749q0 3 -2 4t-5 0t-5 -4z" />
    <glyph glyph-name="adieresis.sc" horiz-adv-x="1001" 
d="M479 1407q-33 0 -51.5 20.5t-15.5 53.5q5 30 28.5 50.5t55.5 20.5q30 0 47 -20.5t14 -50.5q-3 -32 -25.5 -53t-52.5 -21zM791 1407q-31 0 -49.5 21t-14.5 53q3 30 26.5 50.5t55.5 20.5q30 0 48 -20.5t13 -50.5q-3 -32 -25.5 -53t-53.5 -21zM834 0q-18 0 -21 16l-45 224
q0 6 -6 6h-541q-6 0 -8 -6l-100 -224q-6 -16 -25 -16h-37q-22 0 -12 23l516 1140q7 17 25 17h47q19 0 22 -17l240 -1140q3 -23 -19 -23h-36zM250 324q-2 -3 0 -7t6 -4h487q9 0 9 11l-154 749q0 3 -2 4t-5 0t-5 -4z" />
    <glyph glyph-name="agrave.sc" horiz-adv-x="1001" 
d="M643 1362q5 -10 0.5 -17.5t-16.5 -7.5h-27q-14 0 -22 15l-105 227q-4 10 1.5 17.5t17.5 7.5h36q20 0 23 -15zM834 0q-18 0 -21 16l-45 224q0 6 -6 6h-541q-6 0 -8 -6l-100 -224q-6 -16 -25 -16h-37q-22 0 -12 23l516 1140q7 17 25 17h47q19 0 22 -17l240 -1140
q3 -23 -19 -23h-36zM250 324q-2 -3 0 -7t6 -4h487q9 0 9 11l-154 749q0 3 -2 4t-5 0t-5 -4z" />
    <glyph glyph-name="amacron.sc" horiz-adv-x="1001" 
d="M874 1448q19 0 19 -21l-4 -24q0 -9 -7 -15t-16 -6h-471q-8 0 -12.5 6t-3.5 15l2 24q1 9 7.5 15t14.5 6h471zM834 0q-18 0 -21 16l-45 224q0 6 -6 6h-541q-6 0 -8 -6l-100 -224q-6 -16 -25 -16h-37q-22 0 -12 23l516 1140q7 17 25 17h47q19 0 22 -17l240 -1140
q3 -23 -19 -23h-36zM250 324q-2 -3 0 -7t6 -4h487q9 0 9 11l-154 749q0 3 -2 4t-5 0t-5 -4z" />
    <glyph glyph-name="aogonek.sc" horiz-adv-x="1056" 
d="M879 -311q20 3 20 -17l2 -16q3 -22 -16 -25q-34 -9 -70.5 -6.5t-67 12.5t-52 37.5t-25.5 69.5q-10 138 149 250q8 5 2 8q-5 5 -8 14l-45 224q0 6 -6 6h-541q-6 0 -8 -6l-100 -224q-6 -16 -25 -16h-37q-22 0 -12 23l516 1140q7 17 25 17h47q19 0 22 -17l242 -1147l4 -16
q-6 -2 -8 -4q-157 -117 -152 -229q4 -54 45 -72.5t99 -5.5zM250 324q-2 -3 0 -7t6 -4h487q9 0 9 11l-154 749q0 3 -2 4t-5 0t-5 -4z" />
    <glyph glyph-name="aring.sc" horiz-adv-x="1001" 
d="M623 1325q-83 0 -134 59t-40 144q9 85 74.5 144t150.5 59q83 0 134 -59t42 -144q-11 -85 -76.5 -144t-150.5 -59zM666 1675q-59 0 -107 -42.5t-55 -104.5q-7 -63 30 -105.5t97 -42.5t107.5 42.5t54.5 105.5t-30 105t-97 42zM834 0q-18 0 -21 16l-45 224q0 6 -6 6h-541
q-6 0 -8 -6l-100 -224q-6 -16 -25 -16h-37q-22 0 -12 23l516 1140q7 17 25 17h47q19 0 22 -17l240 -1140q3 -23 -19 -23h-36zM250 324q-2 -3 0 -7t6 -4h487q9 0 9 11l-154 749q0 3 -2 4t-5 0t-5 -4z" />
    <glyph glyph-name="atilde.sc" horiz-adv-x="1001" 
d="M555 1473q-35 0 -59.5 -11.5t-53.5 -46.5q-16 -16 -28 -6l-13 10q-14 11 -2 29q67 90 162 90q22 0 44.5 -8.5t32 -14.5t34.5 -24q57 -45 92 -45q64 0 115 63q13 17 26 7l10 -7q18 -11 7 -28q-35 -52 -80.5 -76.5t-85.5 -24.5q-52 0 -111 50q-20 16 -30 23t-26.5 13.5
t-33.5 6.5zM834 0q-18 0 -21 16l-45 224q0 6 -6 6h-541q-6 0 -8 -6l-100 -224q-6 -16 -25 -16h-37q-22 0 -12 23l516 1140q7 17 25 17h47q19 0 22 -17l240 -1140q3 -23 -19 -23h-36zM250 324q-2 -3 0 -7t6 -4h487q9 0 9 11l-154 749q0 3 -2 4t-5 0t-5 -4z" />
    <glyph glyph-name="ae.sc" horiz-adv-x="1552" 
d="M1540 1128q-1 -9 -7.5 -14.5t-14.5 -5.5h-590q-2 0 -5 -2.5t-3 -5.5l-58 -463q0 -8 8 -8h400q20 0 16 -21l-4 -33q-3 -20 -22 -20h-400q-8 0 -8 -8l-57 -467q0 -8 6 -8h588q9 0 14 -6t4 -15l-4 -31q-3 -20 -23 -20h-655q-19 0 -16 20l26 218q0 8 -8 8h-444q-8 0 -11 -6
l-147 -226q-8 -14 -27 -14h-43q-12 0 -15 7t5 18l756 1140q11 15 24 15h701q20 0 16 -21zM328 324q-6 -11 2 -11h405q5 0 10 9l93 759q2 6 -3 6q-4 0 -8 -4z" />
    <glyph glyph-name="b.sc" horiz-adv-x="1073" 
d="M780 614q-4 -1 -5.5 -2.5t-0.5 -3t4 -2.5q88 -37 129 -111t29 -178q-19 -147 -121.5 -232t-255.5 -85h-397q-9 0 -14.5 5.5t-4.5 14.5l140 1139q3 21 22 21h387q153 0 234.5 -82t64.5 -224q-10 -94 -65 -160.5t-146 -99.5zM362 1108q-8 0 -8 -8l-55 -449q-1 -3 1 -5.5
t5 -2.5h324q116 0 194 62.5t90 164.5q14 108 -48 173t-179 65h-324zM571 74q116 0 195 68t92 182q14 113 -50.5 181t-184.5 68h-326q-8 0 -8 -8l-60 -483q-1 -3 1.5 -5.5t5.5 -2.5h335z" />
    <glyph glyph-name="c.sc" horiz-adv-x="1028" 
d="M483 -16q-177 0 -269.5 104t-70.5 279l56 448q22 173 139.5 276t292.5 103q173 0 265.5 -102.5t70.5 -274.5q-3 -20 -23 -20l-39 -2q-18 0 -18 10l2 12q17 138 -55.5 217.5t-210.5 87.5q-138 6 -233 -78.5t-114 -226.5l-55 -455q-17 -140 57 -223.5t214 -83.5
q136 0 230.5 83.5t111.5 223.5v3q3 18 22 18l37 -2q6 0 10.5 -1t6.5 -3t1 -4v-8q-22 -174 -139.5 -277.5t-288.5 -103.5z" />
    <glyph glyph-name="cacute.sc" horiz-adv-x="1028" 
d="M606 1352q-11 0 -14 7t4 17l149 228q6 14 25 14h39q12 0 15 -7t-5 -18l-160 -227q-11 -14 -24 -14h-29zM483 -16q-177 0 -269.5 104t-70.5 279l56 448q22 173 139.5 276t292.5 103q173 0 265.5 -102.5t70.5 -274.5q-3 -20 -23 -20l-39 -2q-18 0 -18 10l2 12
q17 138 -55.5 217.5t-210.5 87.5q-138 6 -233 -78.5t-114 -226.5l-55 -455q-17 -140 57 -223.5t214 -83.5q136 0 230.5 83.5t111.5 223.5v3q3 18 22 18l37 -2q6 0 10.5 -1t6.5 -3t1 -4v-8q-22 -174 -139.5 -277.5t-288.5 -103.5z" />
    <glyph glyph-name="ccaron.sc" horiz-adv-x="1028" 
d="M621 1309q-18 0 -23 12l-137 219q-6 9 -1 17t17 8h29q19 0 24 -13l117 -186q2 -4 5 -3.5t5 3.5l160 186q8 13 27 13h30q11 0 13.5 -8t-4.5 -17l-193 -219q-9 -12 -26 -12h-43zM483 -16q-177 0 -269.5 104t-70.5 279l56 448q22 173 139.5 276t292.5 103
q173 0 265.5 -102.5t70.5 -274.5q-3 -20 -23 -20l-39 -2q-18 0 -18 10l2 12q17 138 -55.5 217.5t-210.5 87.5q-138 6 -233 -78.5t-114 -226.5l-55 -455q-17 -140 57 -223.5t214 -83.5q136 0 230.5 83.5t111.5 223.5v3q3 18 22 18l37 -2q6 0 10.5 -1t6.5 -3t1 -4v-8
q-22 -174 -139.5 -277.5t-288.5 -103.5z" />
    <glyph glyph-name="ccedilla.sc" horiz-adv-x="1028" 
d="M965 807q0 -10 -21 -10l-39 -2q-18 0 -18 10l2 12q17 138 -55.5 217.5t-210.5 87.5q-138 6 -233 -78.5t-114 -226.5l-55 -455q-17 -140 57 -223.5t214 -83.5q136 0 230.5 83.5t111.5 223.5v3q3 18 22 18l37 -2q6 0 10.5 -1t6.5 -3t1 -4v-8q-22 -174 -139.5 -277.5
t-288.5 -103.5h-14q-5 0 -6.5 -4t2.5 -7q116 -108 74 -235q-19 -55 -62 -85.5t-89 -32.5t-93 5q-19 3 -12 25l6 16q9 20 26 17q56 -13 100 4.5t62 72.5q31 101 -74 209l-22 25h2q-129 28 -193 126.5t-47 246.5l56 448q22 173 139.5 276t292.5 103q173 0 265.5 -102.5
t70.5 -274.5z" />
    <glyph glyph-name="cdotaccent.sc" horiz-adv-x="1028" 
d="M655 1384q-32 0 -50 20.5t-15 51.5q3 29 27 49.5t55 20.5q30 0 47 -20t14 -50q-5 -31 -27 -51.5t-51 -20.5zM483 -16q-177 0 -269.5 104t-70.5 279l56 448q22 173 139.5 276t292.5 103q173 0 265.5 -102.5t70.5 -274.5q-3 -20 -23 -20l-39 -2q-18 0 -18 10l2 12
q17 138 -55.5 217.5t-210.5 87.5q-138 6 -233 -78.5t-114 -226.5l-55 -455q-17 -140 57 -223.5t214 -83.5q136 0 230.5 83.5t111.5 223.5v3q3 18 22 18l37 -2q6 0 10.5 -1t6.5 -3t1 -4v-8q-22 -174 -139.5 -277.5t-288.5 -103.5z" />
    <glyph glyph-name="d.sc" horiz-adv-x="1050" 
d="M162 0q-9 0 -14.5 5.5t-4.5 14.5l140 1139q3 21 22 21h389q159 0 242.5 -85t64.5 -231l-65 -547q-19 -147 -122.5 -232t-262.5 -85h-389zM227 80q0 -8 9 -8h327q121 0 201.5 67.5t93.5 182.5l66 534q13 117 -49.5 184.5t-184.5 67.5h-328q-8 0 -8 -8z" />
    <glyph glyph-name="eth.sc" horiz-adv-x="1171" 
d="M817 1180q158 0 241 -85t64 -231l-65 -547q-19 -147 -122.5 -232t-262.5 -85h-389q-19 0 -19 20l68 553q1 3 -1 6t-5 3h-95q-8 0 -12.5 5.5t-3.5 14.5l2 21q3 20 23 20h94q8 0 8 8l64 508q0 9 6 15t14 6h391zM979 322l65 534q13 117 -49 184.5t-184 67.5h-328q-8 0 -8 -8
l-55 -449q0 -8 6 -8h219q20 0 17 -20l-3 -21q0 -9 -6.5 -14.5t-15.5 -5.5h-217q-3 0 -6.5 -3t-3.5 -6l-60 -493q-1 -3 1 -5.5t5 -2.5h328q122 0 202 67.5t93 182.5z" />
    <glyph glyph-name="dcaron.sc" horiz-adv-x="1050" 
d="M631 1303q-20 0 -25 12l-135 219q-6 9 -2 17t16 8h31q18 0 23 -13l116 -186q3 -4 7 -3.5t6 3.5l157 186q10 13 27 13h31q12 0 14.5 -8t-6.5 -17l-191 -219q-12 -12 -28 -12h-41zM162 0q-9 0 -14.5 5.5t-4.5 14.5l140 1139q3 21 22 21h389q159 0 242.5 -85t64.5 -231
l-65 -547q-19 -147 -122.5 -232t-262.5 -85h-389zM227 80q0 -8 9 -8h327q121 0 201.5 67.5t93.5 182.5l66 534q13 117 -49.5 184.5t-184.5 67.5h-328q-8 0 -8 -8z" />
    <glyph glyph-name="dcroat.sc" horiz-adv-x="1171" 
d="M817 1180q158 0 241 -85t64 -231l-65 -547q-19 -147 -122.5 -232t-262.5 -85h-389q-19 0 -19 20l68 553q1 3 -1 6t-5 3h-95q-8 0 -12.5 5.5t-3.5 14.5l2 21q3 20 23 20h94q8 0 8 8l64 508q0 9 6 15t14 6h391zM979 322l65 534q13 117 -49 184.5t-184 67.5h-328q-8 0 -8 -8
l-55 -449q0 -8 6 -8h219q20 0 17 -20l-3 -21q0 -9 -6.5 -14.5t-15.5 -5.5h-217q-3 0 -6.5 -3t-3.5 -6l-60 -493q-1 -3 1 -5.5t5 -2.5h328q122 0 202 67.5t93 182.5z" />
    <glyph glyph-name="e.sc" horiz-adv-x="1042" 
d="M1030 1126q-3 -20 -22 -20h-646q-8 0 -8 -8l-57 -461q0 -8 6 -8h459q9 0 14 -6t4 -15l-4 -33q-3 -20 -22 -20h-459q-6 0 -10 -8l-58 -467q0 -8 9 -8h645q18 0 18 -21l-4 -31q-3 -20 -23 -20h-710q-9 0 -14.5 5.5t-4.5 14.5l140 1137q3 21 22 21h711q9 0 14 -6t4 -15z" />
    <glyph glyph-name="eacute.sc" horiz-adv-x="1042" 
d="M797 1622q12 0 15 -7t-3 -18l-160 -227q-14 -14 -26 -14h-27q-12 0 -15 7t3 17l149 228q8 14 27 14h37zM1030 1126q-3 -20 -22 -20h-646q-8 0 -8 -8l-57 -461q0 -8 6 -8h459q9 0 14 -6t4 -15l-4 -33q-3 -20 -22 -20h-459q-6 0 -10 -8l-58 -467q0 -8 9 -8h645q18 0 18 -21
l-4 -31q-3 -20 -23 -20h-710q-9 0 -14.5 5.5t-4.5 14.5l140 1137q3 21 22 21h711q9 0 14 -6t4 -15z" />
    <glyph glyph-name="ecaron.sc" horiz-adv-x="1042" 
d="M680 1325q-12 -12 -29 -12h-41q-19 0 -24 12l-135 219q-6 9 -2 17t16 8h29q19 0 24 -13l117 -186q7 -10 12 0l158 186q10 13 26 13h31q12 0 14.5 -8t-6.5 -17zM1030 1126q-3 -20 -22 -20h-646q-8 0 -8 -8l-57 -461q0 -8 6 -8h459q9 0 14 -6t4 -15l-4 -33q-3 -20 -22 -20
h-459q-6 0 -10 -8l-58 -467q0 -8 9 -8h645q18 0 18 -21l-4 -31q-3 -20 -23 -20h-710q-9 0 -14.5 5.5t-4.5 14.5l140 1137q3 21 22 21h711q9 0 14 -6t4 -15z" />
    <glyph glyph-name="uni0229.sc" horiz-adv-x="1042" 
d="M1030 1126q-3 -20 -22 -20h-646q-8 0 -8 -8l-57 -461q0 -8 6 -8h459q9 0 14 -6t4 -15l-4 -33q-3 -20 -22 -20h-459q-6 0 -10 -8l-58 -467q0 -8 9 -8h645q18 0 18 -21l-4 -31q-3 -20 -23 -20h-356q-5 0 -6.5 -3.5t2.5 -6.5q115 -107 72 -236q-19 -55 -61.5 -85t-88.5 -32
t-92 5q-18 3 -14 24l6 17q8 19 28 16q54 -13 99 5t61 73q35 104 -84 219q-2 4 -8 4h-268q-9 0 -14.5 5.5t-4.5 14.5l140 1137q3 21 22 21h711q9 0 14 -6t4 -15z" />
    <glyph glyph-name="ecircumflex.sc" horiz-adv-x="1042" 
d="M668 1536q-2 3 -6 3.5t-7 -3.5l-161 -186q-10 -13 -27 -13h-31q-12 0 -14.5 8t6.5 17l190 221q10 12 29 12h41q20 0 25 -12l137 -221q6 -9 2 -17t-16 -8h-31q-18 0 -23 13zM1030 1126q-3 -20 -22 -20h-646q-8 0 -8 -8l-57 -461q0 -8 6 -8h459q9 0 14 -6t4 -15l-4 -33
q-3 -20 -22 -20h-459q-6 0 -10 -8l-58 -467q0 -8 9 -8h645q18 0 18 -21l-4 -31q-3 -20 -23 -20h-710q-9 0 -14.5 5.5t-4.5 14.5l140 1137q3 21 22 21h711q9 0 14 -6t4 -15z" />
    <glyph glyph-name="edieresis.sc" horiz-adv-x="1042" 
d="M494 1425q-33 0 -52 20.5t-16 53.5q5 30 28.5 51t55.5 21q30 0 47 -21t14 -51q-5 -32 -26.5 -53t-50.5 -21zM805 1425q-31 0 -50 21t-16 53q5 30 28.5 51t55.5 21q31 0 49 -21.5t13 -50.5q-3 -32 -26 -53t-54 -21zM1030 1126q-3 -20 -22 -20h-646q-8 0 -8 -8l-57 -461
q0 -8 6 -8h459q9 0 14 -6t4 -15l-4 -33q-3 -20 -22 -20h-459q-6 0 -10 -8l-58 -467q0 -8 9 -8h645q18 0 18 -21l-4 -31q-3 -20 -23 -20h-710q-9 0 -14.5 5.5t-4.5 14.5l140 1137q3 21 22 21h711q9 0 14 -6t4 -15z" />
    <glyph glyph-name="edotaccent.sc" horiz-adv-x="1042" 
d="M643 1389q-31 0 -49 20t-14 51q3 29 26.5 49.5t55.5 20.5q29 0 46.5 -20.5t12.5 -49.5q-3 -31 -25 -51t-53 -20zM1030 1126q-3 -20 -22 -20h-646q-8 0 -8 -8l-57 -461q0 -8 6 -8h459q9 0 14 -6t4 -15l-4 -33q-3 -20 -22 -20h-459q-6 0 -10 -8l-58 -467q0 -8 9 -8h645
q18 0 18 -21l-4 -31q-3 -20 -23 -20h-710q-9 0 -14.5 5.5t-4.5 14.5l140 1137q3 21 22 21h711q9 0 14 -6t4 -15z" />
    <glyph glyph-name="egrave.sc" horiz-adv-x="1042" 
d="M657 1380q10 -24 -16 -24h-27q-15 0 -22 14l-105 227q-4 10 1.5 17.5t17.5 7.5h37q19 0 22 -14zM1030 1126q-3 -20 -22 -20h-646q-8 0 -8 -8l-57 -461q0 -8 6 -8h459q9 0 14 -6t4 -15l-4 -33q-3 -20 -22 -20h-459q-6 0 -10 -8l-58 -467q0 -8 9 -8h645q18 0 18 -21l-4 -31
q-3 -20 -23 -20h-710q-9 0 -14.5 5.5t-4.5 14.5l140 1137q3 21 22 21h711q9 0 14 -6t4 -15z" />
    <glyph glyph-name="emacron.sc" horiz-adv-x="1042" 
d="M889 1466q18 0 18 -20l-4 -25q-3 -20 -22 -20h-471q-8 0 -13 5.5t-4 14.5l2 25q3 20 23 20h471zM1030 1126q-3 -20 -22 -20h-646q-8 0 -8 -8l-57 -461q0 -8 6 -8h459q9 0 14 -6t4 -15l-4 -33q-3 -20 -22 -20h-459q-6 0 -10 -8l-58 -467q0 -8 9 -8h645q18 0 18 -21l-4 -31
q-3 -20 -23 -20h-710q-9 0 -14.5 5.5t-4.5 14.5l140 1137q3 21 22 21h711q9 0 14 -6t4 -15z" />
    <glyph glyph-name="eogonek.sc" horiz-adv-x="1042" 
d="M1030 1126q-3 -20 -22 -20h-646q-8 0 -8 -8l-57 -461q0 -8 6 -8h459q9 0 14 -6t4 -15l-4 -33q-3 -20 -22 -20h-459q-6 0 -10 -8l-58 -467q0 -8 9 -8h645q18 0 18 -21l-4 -31q-3 -20 -23 -20h-360q-6 0 -10 -4q-145 -113 -137 -219q3 -54 43 -72.5t98 -5.5q20 3 20 -16
l2 -17q3 -21 -16 -24q-49 -7 -94 -5t-80 32t-41 85q-10 128 131 236q4 3 2.5 6.5t-4.5 3.5h-264q-9 0 -14.5 5.5t-4.5 14.5l140 1137q3 21 22 21h711q9 0 14 -6t4 -15z" />
    <glyph glyph-name="f.sc" horiz-adv-x="968" 
d="M1028 1128q-3 -20 -22 -20h-644q-8 0 -8 -8l-57 -463q0 -8 6 -8h457q9 0 14 -6t4 -15l-4 -33q-3 -20 -22 -20h-457q-6 0 -10 -8l-64 -527q-3 -20 -22 -20h-37q-9 0 -14.5 5.5t-4.5 14.5l140 1139q3 21 22 21h711q8 0 12.5 -6t3.5 -15z" />
    <glyph glyph-name="g.sc" horiz-adv-x="1052" 
d="M496 -14q-182 0 -275 106t-69 297l49 402q23 192 142 297.5t300 105.5q177 0 270 -104t70 -289v-2q-1 -9 -7.5 -15t-14.5 -6h-37q-19 0 -19 13l2 10q18 153 -56 237t-216 84q-146 0 -241 -85.5t-115 -245.5l-52 -404q-18 -158 57 -244t220 -86q143 0 237.5 86t114.5 244
l14 115q0 8 -8 8h-268q-9 0 -14.5 5.5t-4.5 14.5l5 31q4 21 22 21h334q20 0 16 -21l-20 -172q-23 -190 -141.5 -296.5t-294.5 -106.5z" />
    <glyph glyph-name="gbreve.sc" horiz-adv-x="1052" 
d="M649 1280q-79 0 -129.5 52.5t-48.5 131.5q0 9 6.5 15t14.5 6h18q18 0 18 -21q0 -56 37 -92.5t92 -36.5q54 0 100.5 37t59.5 92q6 21 25 21h18q20 0 17 -21q-17 -78 -83 -131t-145 -53zM496 -14q-182 0 -275 106t-69 297l49 402q23 192 142 297.5t300 105.5
q177 0 270 -104t70 -289v-2q-1 -9 -7.5 -15t-14.5 -6h-37q-19 0 -19 13l2 10q18 153 -56 237t-216 84q-146 0 -241 -85.5t-115 -245.5l-52 -404q-18 -158 57 -244t220 -86q143 0 237.5 86t114.5 244l14 115q0 8 -8 8h-268q-9 0 -14.5 5.5t-4.5 14.5l5 31q4 21 22 21h334
q20 0 16 -21l-20 -172q-23 -190 -141.5 -296.5t-294.5 -106.5z" />
    <glyph glyph-name="uni0123.sc" horiz-adv-x="1052" 
d="M496 -14q-182 0 -275 106t-69 297l49 402q23 192 142 297.5t300 105.5q177 0 270 -104t70 -289v-2q-1 -9 -7.5 -15t-14.5 -6h-37q-19 0 -19 13l2 10q18 153 -56 237t-216 84q-146 0 -241 -85.5t-115 -245.5l-52 -404q-18 -158 57 -244t220 -86q143 0 237.5 86t114.5 244
l14 115q0 8 -8 8h-268q-9 0 -14.5 5.5t-4.5 14.5l5 31q4 21 22 21h334q20 0 16 -21l-20 -172q-23 -190 -141.5 -296.5t-294.5 -106.5zM352 -401q-12 0 -15 6.5t5 17.5l147 227q9 15 27 15h37q12 0 15 -7.5t-3 -17.5l-159 -227q-11 -14 -27 -14h-27z" />
    <glyph glyph-name="gdotaccent.sc" horiz-adv-x="1052" 
d="M664 1384q-32 0 -50.5 20.5t-15.5 51.5q3 29 27 49.5t55 20.5q29 0 46.5 -20.5t14.5 -49.5q-5 -31 -26.5 -51.5t-50.5 -20.5zM496 -14q-182 0 -275 106t-69 297l49 402q23 192 142 297.5t300 105.5q177 0 270 -104t70 -289v-2q-1 -9 -7.5 -15t-14.5 -6h-37q-19 0 -19 13
l2 10q18 153 -56 237t-216 84q-146 0 -241 -85.5t-115 -245.5l-52 -404q-18 -158 57 -244t220 -86q143 0 237.5 86t114.5 244l14 115q0 8 -8 8h-268q-9 0 -14.5 5.5t-4.5 14.5l5 31q4 21 22 21h334q20 0 16 -21l-20 -172q-23 -190 -141.5 -296.5t-294.5 -106.5z" />
    <glyph glyph-name="h.sc" horiz-adv-x="1128" 
d="M977 1159q3 21 22 21h37q19 0 19 -21l-142 -1139q0 -9 -6 -14.5t-14 -5.5h-39q-19 0 -16 20l63 527q0 8 -6 8h-600q-6 0 -10 -8l-64 -527q-3 -20 -22 -20h-37q-9 0 -14.5 5.5t-4.5 14.5l140 1139q3 21 22 21h39q20 0 16 -21l-63 -522q0 -8 6 -8h600q6 0 10 8z" />
    <glyph glyph-name="hbar.sc" horiz-adv-x="1128" 
d="M1188 926q18 0 18 -21l-4 -24q0 -9 -6.5 -15t-15.5 -6h-154q-6 0 -10 -8l-103 -832q0 -9 -6 -14.5t-14 -5.5h-39q-19 0 -16 20l63 527q0 8 -6 8h-600q-6 0 -10 -8l-64 -527q-3 -20 -22 -20h-37q-9 0 -14.5 5.5t-4.5 14.5l103 832q0 8 -6 8h-158q-19 0 -19 21l5 24
q4 21 22 21h156q10 0 10 8l27 225q3 21 22 21h39q20 0 16 -21l-26 -225q-1 -3 1 -5.5t5 -2.5h600q8 0 8 8l29 225q3 21 22 21h37q19 0 19 -21l-29 -225q0 -8 8 -8h154zM903 629q6 0 10 8l25 215q1 3 -1 5.5t-5 2.5h-600q-8 0 -8 -8l-27 -215q0 -8 6 -8h600z" />
    <glyph glyph-name="i.sc" horiz-adv-x="438" 
d="M162 0q-9 0 -14.5 5.5t-4.5 14.5l140 1137q3 21 22 21h39q8 0 12.5 -6t3.5 -15l-139 -1137q-3 -20 -22 -20h-37z" />
    <glyph glyph-name="iacute.sc" horiz-adv-x="438" 
d="M303 1356q-12 0 -15 7t5 17l149 228q6 14 25 14h39q11 0 14 -7t-4 -18l-160 -227q-10 -14 -24 -14h-29zM162 0q-9 0 -14.5 5.5t-4.5 14.5l140 1137q3 21 22 21h39q8 0 12.5 -6t3.5 -15l-139 -1137q-3 -20 -22 -20h-37z" />
    <glyph glyph-name="icircumflex.sc" horiz-adv-x="438" 
d="M143 1337q-10 0 -13 8t5 17l193 221q7 12 26 12h43q18 0 23 -12l139 -221q6 -9 1 -17t-17 -8h-29q-20 0 -25 13l-114 186q0 2 -2 3t-5 0.5t-6 -3.5l-161 -186q-8 -13 -27 -13h-31zM162 0q-9 0 -14.5 5.5t-4.5 14.5l140 1137q3 21 22 21h39q8 0 12.5 -6t3.5 -15
l-139 -1137q-3 -20 -22 -20h-37z" />
    <glyph glyph-name="idieresis.sc" horiz-adv-x="438" 
d="M201 1425q-32 0 -51 21t-15 53q3 30 27 51t57 21q29 0 47 -21.5t13 -50.5q-3 -32 -25.5 -53t-52.5 -21zM512 1425q-31 0 -49 21t-14 53q3 29 26.5 50.5t54.5 21.5q30 0 48.5 -21t15.5 -51q-5 -32 -27.5 -53t-54.5 -21zM162 0q-9 0 -14.5 5.5t-4.5 14.5l140 1137
q3 21 22 21h39q8 0 12.5 -6t3.5 -15l-139 -1137q-3 -20 -22 -20h-37z" />
    <glyph glyph-name="i.sc.loclTRK" horiz-adv-x="438" 
d="M352 1389q-32 0 -50.5 20t-14.5 51q3 29 27 49.5t55 20.5q29 0 46.5 -20.5t14.5 -49.5q-4 -31 -26.5 -51t-51.5 -20zM162 0q-9 0 -14.5 5.5t-4.5 14.5l140 1137q3 21 22 21h39q8 0 12.5 -6t3.5 -15l-139 -1137q-3 -20 -22 -20h-37z" />
    <glyph glyph-name="igrave.sc" horiz-adv-x="438" 
d="M367 1380q4 -10 -1 -17t-16 -7h-28q-12 0 -23 14l-102 227q-5 11 -0.5 18t16.5 7h37q19 0 22 -14zM162 0q-9 0 -14.5 5.5t-4.5 14.5l140 1137q3 21 22 21h39q8 0 12.5 -6t3.5 -15l-139 -1137q-3 -20 -22 -20h-37z" />
    <glyph glyph-name="ij.sc" horiz-adv-x="1419" 
d="M825 -14q-169 0 -258 99t-69 269l8 62q3 20 22 20h37q9 0 14.5 -5.5t4.5 -14.5l-9 -64q-17 -136 54 -215.5t205 -79.5q133 0 223.5 79.5t107.5 215.5l101 807q0 9 6 15t14 6h37q19 0 16 -21l-98 -805q-20 -169 -134.5 -268.5t-281.5 -99.5zM162 0q-9 0 -14.5 5.5
t-4.5 14.5l140 1137q3 21 22 21h39q8 0 12.5 -6t3.5 -15l-139 -1137q-3 -20 -22 -20h-37z" />
    <glyph glyph-name="imacron.sc" horiz-adv-x="438" 
d="M119 1401q-19 0 -19 20l4 25q3 20 23 20h471q8 0 12.5 -5.5t3.5 -14.5l-2 -25q-3 -20 -22 -20h-471zM162 0q-9 0 -14.5 5.5t-4.5 14.5l140 1137q3 21 22 21h39q8 0 12.5 -6t3.5 -15l-139 -1137q-3 -20 -22 -20h-37z" />
    <glyph glyph-name="iogonek.sc" horiz-adv-x="477" 
d="M207 -311q20 3 20 -17l2 -16q3 -22 -16 -25q-34 -9 -70.5 -6.5t-67 12.5t-52 37.5t-25.5 69.5q-10 137 152 250q7 5 0 8q-7 7 -7 18l140 1137q3 21 22 21h39q8 0 12.5 -6t3.5 -15l-141 -1157l-12 -10q-65 -49 -105 -107.5t-36 -115.5q3 -54 43 -72.5t98 -5.5z" />
    <glyph glyph-name="j.sc" horiz-adv-x="978" 
d="M385 -14q-169 0 -258.5 99.5t-67.5 268.5l9 62q0 9 6.5 14.5t15.5 5.5h37q18 0 18 -20l-8 -64q-17 -136 53 -215.5t205 -79.5q133 0 224 80t108 215l98 807q3 21 23 21h37q8 0 12.5 -6t3.5 -15l-98 -805q-22 -169 -136 -268.5t-282 -99.5z" />
    <glyph glyph-name="k.sc" horiz-adv-x="1028" 
d="M162 0q-9 0 -14.5 5.5t-4.5 14.5l140 1139q3 21 22 21h39q20 0 16 -21l-73 -598q0 -4 3.5 -5.5t6.5 1.5l661 612q11 11 25 11h39q12 0 15 -7t-7 -18l-475 -453q-4 -4 -4 -12l383 -665q7 -9 2.5 -17t-16.5 -8h-46q-17 0 -22 12l-358 619q-2 3 -6 4t-7 -2l-202 -184
q-7 -5 -7 -11l-51 -418q-3 -20 -22 -20h-37z" />
    </font>
</defs>
</svg>
